<?xml version="1.0" standalone="no"?>
<!DOCTYPE svg PUBLIC "-//W3C//DTD SVG 1.1//EN" "http://www.w3.org/Graphics/SVG/1.1/DTD/svg11.dtd" >
<svg xmlns="http://www.w3.org/2000/svg">
<metadata>Generated by IcoMoon</metadata>
<defs>
<font id="icomoon" horiz-adv-x="1024">
<font-face units-per-em="1024" ascent="960" descent="-64" />
<missing-glyph horiz-adv-x="1024" />
<glyph unicode="&#x20;" horiz-adv-x="512" d="" />
<glyph unicode="&#xe900;" glyph-name="loyalty-point" horiz-adv-x="964" d="M361.412 782.727c0 91.468 134.852 165.641 301.176 165.641s301.176-74.172 301.176-165.641c0-91.468-134.852-165.64-301.176-165.64s-301.176 74.172-301.176 165.64zM662.588 534.257c-41.243 0-80.357 4.756-116.085 13.044-54.57 42.201-143.998 69.786-245.326 69.786-166.325-0.018-301.176-74.174-301.176-165.659 0-91.488 134.852-165.641 301.176-165.641s301.176 74.171 301.176 165.641c0 1.202-0.283 2.367-0.319 3.551h0.319v-86.38c0-91.488-134.852-165.641-301.176-165.641s-301.176 74.171-301.176 165.641v-82.833c0-91.485 134.852-165.638 301.176-165.638s301.176 74.171 301.176 165.638v-82.83c0-91.488-134.852-165.641-301.176-165.641s-301.176 74.174-301.176 165.662v-82.83c0-91.488 134.852-165.641 301.176-165.641s301.176 74.171 301.176 165.641v3.319c19.483-2.156 39.587-3.319 60.235-3.319 166.325 0 301.176 74.171 301.176 165.638v82.833c0-87.763-124.16-159.392-281.091-165.117v82.83c156.931 5.707 281.091 77.318 281.091 165.117v82.83c0-87.76-124.16-159.392-281.091-165.117v82.83c156.931 5.707 281.091 77.318 281.091 165.117v82.83c0-91.489-134.852-165.641-301.176-165.641v-0.018z" />
<glyph unicode="&#xe901;" glyph-name="vip-2" horiz-adv-x="1446" d="M1190.84-45.005h-935.085l-18.749 78.502h972.582l-18.748-78.502zM66.936 784.514c34.757 0 62.931-27.792 62.931-62.089 0-25.711-15.843-47.77-38.42-57.191 65.483-133.998 207.782-224.302 346.455-224.302 137.096 0 251.561 239.582 279.052 371.063-31.786 3.128-56.612 29.586-56.612 61.765 0.012 34.297 28.199 62.089 62.955 62.089s62.931-27.792 62.931-62.089c0-32.179-24.826-58.637-56.612-61.765 27.491-131.482 141.957-371.063 279.052-371.063 138.671 0 280.971 90.305 346.455 224.302-22.579 9.434-38.421 31.481-38.421 57.191 0 34.285 28.175 62.089 62.943 62.089 34.771 0 62.943-27.792 62.943-62.089s-28.172-62.089-62.943-62.089c-6.861 0-13.457 1.122-19.634 3.128l-128.337-537.455h-1016.752l-128.339 537.455c-6.178-2.006-12.773-3.128-19.633-3.128-34.757 0-62.944 27.792-62.944 62.089s28.174 62.089 62.931 62.089z" />
<glyph unicode="&#xe902;" glyph-name="ashbin" d="M144 832c-44.202 0-80-35.84-80-80v-32.001c0-44.202 35.84-80 80-80h736.002c44.158 0 79.998 35.84 79.998 80v32.001c0 44.202-35.84 80-79.998 80h-736.002zM131.712 576l23.040-391.509c1.914-32.577 16.2-63.194 39.937-85.588 23.736-22.402 55.131-34.879 87.765-34.903h458.965c32.649 0 64.068 12.469 87.817 34.871 23.757 22.394 38.053 53.027 39.968 85.62l23.087 391.509h-760.578zM393.386 454.613c6 5.993 14.134 9.359 22.613 9.359s16.614-3.366 22.614-9.359l73.386-73.387 73.387 73.387c2.929 3.144 6.462 5.666 10.388 7.415s8.162 2.689 12.459 2.766c4.297 0.076 8.565-0.715 12.55-2.324s7.604-4.005 10.643-7.044c3.039-3.039 5.434-6.658 7.044-10.643s2.4-8.253 2.324-12.55c-0.076-4.297-1.017-8.534-2.766-12.459s-4.271-7.459-7.415-10.388l-73.387-73.387 73.387-73.386c3.144-2.929 5.666-6.462 7.415-10.388s2.689-8.163 2.766-12.459c0.076-4.297-0.715-8.565-2.324-12.55s-4.005-7.604-7.044-10.643c-3.039-3.039-6.658-5.434-10.643-7.044s-8.253-2.4-12.55-2.324c-4.297 0.076-8.534 1.017-12.459 2.766s-7.459 4.271-10.388 7.415l-73.387 73.387-73.386-73.387c-2.929-3.144-6.462-5.666-10.388-7.415s-8.163-2.689-12.459-2.766c-4.297-0.076-8.565 0.715-12.55 2.324s-7.604 4.005-10.643 7.044c-3.039 3.039-5.434 6.658-7.044 10.643s-2.4 8.253-2.324 12.55c0.076 4.296 1.017 8.534 2.766 12.459s4.271 7.459 7.415 10.388l73.387 73.386-73.387 73.387c-5.993 6-9.359 14.134-9.359 22.613s3.366 16.614 9.359 22.614z" />
<glyph unicode="&#xe903;" glyph-name="bonus" d="M453.273 403.768h46.141v-123.048h-46.141v123.048zM453.273 588.335h46.141v-123.048h-46.141v123.048zM530.157 280.72h15.383c16.314 0 31.963 6.484 43.501 18.018 11.539 11.539 18.022 27.187 18.022 43.506s-6.484 31.967-18.022 43.501c-11.539 11.539-27.187 18.022-43.501 18.022h-15.383v-123.048zM514.821 865.193c-85.175 0-168.44-25.258-239.262-72.58s-126.021-114.582-158.617-193.276c-32.596-78.693-41.125-165.287-24.508-248.827s57.634-160.275 117.863-220.504c60.229-60.23 136.967-101.246 220.507-117.862 83.542-16.621 170.135-8.090 248.825 24.506 78.694 32.596 145.957 87.794 193.275 158.618 47.323 70.819 72.583 154.084 72.583 239.262-0.121 114.182-45.535 223.651-126.273 304.39s-190.208 126.151-304.393 126.273zM668.63 342.244c0-32.633-12.963-63.93-36.040-87.007-23.073-23.073-54.37-36.040-87.007-36.040h-15.379v-30.762c0-4.077-1.62-7.992-4.506-10.873-2.886-2.886-6.796-4.506-10.878-4.506-4.077 0-7.987 1.62-10.873 4.506-2.886 2.881-4.506 6.796-4.506 10.873v30.762h-76.904c-8.158 0-15.983 3.244-21.752 9.011s-9.010 13.591-9.010 21.751v369.141c0 8.158 3.241 15.983 9.010 21.752s13.594 9.010 21.752 9.010h76.904v30.761c0 4.079 1.62 7.991 4.506 10.876s6.796 4.505 10.873 4.505c4.082 0 7.992-1.62 10.878-4.505s4.506-6.797 4.506-10.876v-30.761h15.379c25.055 0.111 49.538-7.46 70.153-21.693 20.62-14.233 36.375-34.444 45.154-57.909 8.774-23.465 10.147-49.056 3.928-73.325-6.214-24.27-19.721-46.048-38.698-62.404 13.284-11.436 23.957-25.595 31.293-41.519s11.162-33.233 11.217-50.767zM607.064 526.812c0 16.317-6.484 31.966-18.022 43.504s-27.187 18.020-43.501 18.020h-15.383v-123.048h15.383c16.314 0 31.963 6.484 43.501 18.022 11.539 11.537 18.022 27.185 18.022 43.502z" />
<glyph unicode="&#xe904;" horiz-adv-x="2078" d="M514.403 931.505h1049.055c270.080 0 489.017-219.57 489.017-490.426s-218.937-490.427-489.017-490.427h-1049.055c-270.081 0-489.021 219.57-489.021 490.427s218.94 490.426 489.021 490.426z" />
<glyph unicode="&#xe905;" horiz-adv-x="2078" d="M926.325 441.079c0-229.185-184.874-414.976-412.928-414.976s-412.928 185.791-412.928 414.976c0 229.185 184.874 414.976 412.928 414.976s412.928-185.791 412.928-414.976z" />
<glyph unicode="&#xe906;" glyph-name="download" horiz-adv-x="1280" d="M1086.376-49.019h-892.869c-98.028 0-177.689 74.575-177.689 165.883v260.289c0 32.845 28.545 59.702 63.95 59.702s63.95-26.65 63.95-59.702v-260.084c0-25.614 22.349-46.685 50.010-46.685h892.871c27.439 0 50.008 20.864 50.008 46.685v260.084c0 32.845 28.546 59.702 63.951 59.702s63.949-26.65 63.949-59.702v-260.084c-0.442-91.513-80.102-166.088-178.132-166.088zM960.696 624.635c-26.11 22.104-66.604 20.245-90.282-4.338l-136.974-141.712v385.269c0 48.133-41.821 87.176-93.379 87.176s-93.382-39.043-93.382-87.176v-385.269l-136.972 141.712c-23.678 24.376-64.172 26.442-90.284 4.338-26.11-22.104-28.323-59.702-4.645-84.285l277.928-287.351c12.172-12.602 29.431-19.626 47.355-19.626 18.143 0 35.405 7.231 47.353 19.626l277.93 287.351c23.678 24.376 21.464 62.18-4.648 84.285z" />
<glyph unicode="&#xe907;" glyph-name="dt-ranking" horiz-adv-x="880" d="M520.857 731.199l-49.903 7.382-22.442 46.755c-7.658 16.132-20.331 16.132-27.988 0l-22.444-46.755-49.901-7.382c-17.162-2.461-21.123-15.038-8.713-27.616l36.172-36.366-8.449-51.403c-2.905-17.771 7.128-25.428 22.706-16.952l44.621 24.335 44.621-24.335c15.313-8.476 25.611-0.819 22.708 16.952l-8.449 51.403 36.172 36.366c12.408 12.577 8.713 24.881-8.713 27.616zM837.964 882.4h-149.441v75.464h-507.997v-75.464h-149.441c-13.994 0-25.611-11.757-25.611-26.522v-141.905c0-81.207 63.632-147.102 142.049-147.102h51.221c20.067-47.302 54.391-90.775 91.883-122.219l11.090-9.297c33.796-28.435 53.334-71.089 53.334-115.929v-60.973h158.418v69.722c0 39.647 17.162 77.105 46.998 101.987l17.69 14.764c37.493 31.444 71.817 74.919 91.883 122.221h51.222c78.419 0 142.049 65.894 142.049 147.1v141.632c0 14.491-11.352 26.522-25.611 26.522h0.264zM147.523 635.5c-41.981 0-76.041 35.272-76.041 78.746v100.072h109.044v-163.233c0-5.194 0.792-10.389 1.32-15.585h-34.324zM521.39 554.020c-152.61-85.306-306.803 74.098-224.427 232.409 11.618 22.147 29.308 40.74 50.959 52.497 152.61 85.307 306.541-74.371 224.427-232.409-11.618-22.147-29.308-40.739-50.695-52.77l-0.264 0.273zM797.568 714.245c0-43.473-34.060-78.746-76.042-78.746h-34.324c0.528 5.195 1.32 10.391 1.32 15.585v163.233h109.045v-100.072zM698.557 25.769h-52.806v88.042c0 42.108-33.005 76.011-73.401 76.011h-275.65c-40.66 0-73.399-34.178-73.399-76.011v-88.042h-52.807v-82.026h528.063v82.026zM551.755 107.797v-54.685h-234.724v54.685h234.724z" />
<glyph unicode="&#xe908;" glyph-name="e-games" horiz-adv-x="794" d="M395.559 947.514c-113.9 0-205.946-89.588-205.946-199.89 0-110.55 92.303-199.889 205.946-199.889 113.902 0 205.947 89.587 205.947 199.889s-92.045 199.89-205.947 199.89zM344.137 735.397c-28.283 0-51.424 22.459-51.424 49.909s23.14 49.91 51.424 49.91c28.281 0 51.422-22.459 51.422-49.91s-23.14-49.909-51.422-49.909zM758.608 95.301l-57.593 55.9c-14.399 13.974-34.195 21.96-54.508 21.96h-133.442l-11.569 78.359c-1.799 12.227-12.599 21.46-25.454 21.46h-16.198v219.855c-20.57-4.99-42.168-7.736-64.278-7.736-22.112 0-43.71 2.995-64.278 7.736v-219.855h-16.198c-12.856 0-23.654-9.233-25.456-21.46l-11.569-78.359h-133.441c-20.569 0-40.109-7.985-54.508-21.96l-57.593-55.9c-14.398-13.974-22.626-33.19-22.626-52.905v-43.171c0-27.452 23.14-49.911 51.423-49.911h668.493c28.281 0 51.422 22.459 51.422 49.911v43.171c0 19.715-8.228 38.931-22.626 52.905z" />
<glyph unicode="&#xe909;" glyph-name="event-circular" horiz-adv-x="977" d="M295.699 913.091c12.039 2.421 20.271 13.902 18.745 26.141-0.822 6.594-4.204 12.378-9.545 16.28-4.197 3.063-9.097 4.544-14.233 4.464-1.291-0.036-2.583-0.182-3.881-0.438-68.45-13.712-149.46-66.767-201.601-132.031-52.266-65.213-86.483-158.289-85.148-231.577 0.125-6.754 2.979-12.917 8.034-17.352 4.285-3.756 9.75-5.799 15.355-5.799 0.968 0 1.944 0.058 2.92 0.182 11.856 1.51 20.638 11.787 20.418 23.887-1.115 61.88 29.625 144.482 74.752 200.892 38.077 47.643 106.695 101.784 174.184 115.351zM892.262 827.523c-52.136 65.25-133.153 118.305-201.602 132.017-1.299 0.263-2.588 0.401-3.901 0.445-5.032 0.168-10.007-1.408-14.22-4.471-5.325-3.902-8.713-9.686-9.528-16.28-1.527-12.239 6.703-23.719 18.744-26.141 67.486-13.566 136.108-67.708 174.182-115.358 45.121-56.395 75.86-139.005 74.752-200.885-0.219-12.107 8.564-22.377 20.419-23.887 0.968-0.124 1.946-0.182 2.918-0.182 5.604 0 11.073 2.042 15.351 5.791 5.069 4.434 7.922 10.598 8.048 17.359 1.327 73.288-32.889 166.363-85.164 231.592zM582.563 30.557h-187.674c-9.362 0-15.788-9.407-12.663-18.344 15.539-44.404 57.335-76.214 106.496-76.214s90.959 31.809 106.496 76.214c3.133 8.937-3.291 18.344-12.656 18.344zM886.714 215.124c-30.599 53.56-46.708 114.344-46.708 176.235v118.026c0 169.988-117.709 312.042-275.046 347.322v10.911c0 42.647-34.132 77.219-76.227 77.219-42.105 0-76.227-34.572-76.227-77.219v-10.911c-157.332-35.28-275.047-177.334-275.047-347.322v-118.026c0-61.882-16.111-122.671-46.712-176.235l-28.517-49.915c-27.505-40.867 1.387-96.251 50.219-96.251h752.567c48.831 0 77.722 55.384 50.218 96.251l-28.518 49.915z" />
<glyph unicode="&#xe90a;" glyph-name="fantasy" horiz-adv-x="745" d="M485.214 307.126l-62.455 8.587-28.007 54.205c-9.521 18.516-25.205 18.516-35.008 0l-28.007-54.205-62.455-8.587c-21.565-2.953-26.326-17.173-10.642-31.932l45.091-42.131-10.642-59.571c-3.642-20.394 8.961-29.249 28.287-19.59l55.734 28.177 55.732-28.177c19.326-9.659 31.928-0.804 28.288 19.59l-10.644 59.571 45.091 42.131c15.403 14.491 10.642 28.711-10.923 31.932h0.56zM713.188 951.414h-244.218c-10.082 0-19.603-5.367-24.645-13.954l-166.080-289.004c31.647 7.782 64.696 12.344 98.864 12.344 68.615 0 133.312-16.637 190.164-45.35l170.561 296.249c10.363 17.979-3.361 39.715-24.647 39.715zM334.82 885.67l-24.647 42.666c-5.042 8.587-14.284 13.954-24.647 13.954h-243.937c-21.285 0-34.728-21.736-24.366-39.714l163.839-285.247 153.758 268.341zM421.64 590.762c-222.653 27.102-410.018-152.418-382.012-366.019 19.045-145.442 141.714-262.974 293.51-281.222 222.934-26.834 410.298 152.688 382.291 366.287-19.045 145.442-141.714 262.974-293.51 281.222l-0.279-0.268zM416.88 78.498c-141.435-25.76-262.984 90.7-236.377 226.213 15.124 75.672 78.698 136.585 157.678 151.075 141.433 25.762 262.982-90.967 236.095-226.211-14.842-75.674-78.699-136.587-157.677-151.077h0.281z" />
<glyph unicode="&#xe90b;" glyph-name="featured-fantasy" horiz-adv-x="670" d="M433.325 298.079l-57.094 8.476-25.603 53.516c-8.705 18.282-23.043 18.282-32.004 0l-25.603-53.516-57.095-8.476c-19.714-2.914-24.067-16.959-9.729-31.531l41.221-41.594-9.729-58.813c-3.328-20.137 8.193-28.881 25.859-19.342l50.95 27.817 50.95-27.817c17.665-9.539 29.189-0.796 25.861 19.342l-9.732 58.813 41.224 41.594c14.080 14.308 9.728 28.349-9.988 31.531h0.512zM641.737 934.19h-223.26c-9.216 0-17.924-5.299-22.532-13.777l-151.826-285.337c28.932 7.683 59.143 12.187 90.379 12.187 62.727 0 121.871-16.426 173.847-44.774l155.92 292.49c9.476 17.751-3.072 39.211-22.528 39.211zM295.621 869.282l-22.531 42.125c-4.609 8.478-13.058 13.777-22.531 13.777h-223.003c-19.458 0-31.748-21.46-22.275-39.211l149.778-281.628 140.561 264.937zM374.99 578.117c-203.544 26.759-374.829-150.482-349.226-361.375 17.41-143.592 129.552-259.635 268.32-277.654 203.8-26.494 375.084 150.749 349.484 361.641-17.412 143.596-129.552 259.635-268.322 277.652l-0.256-0.265zM370.638 72.353c-129.296-25.435-240.413 89.549-216.090 223.342 13.826 74.709 71.945 134.853 144.146 149.157 129.295 25.435 240.411-89.813 215.835-223.342-13.572-74.713-71.948-134.853-144.147-149.157h0.256z" />
<glyph unicode="&#xe90c;" glyph-name="fishing" d="M645.12 834.108c177.391-58.428 318.946-189.139 318.946-386.411 0-249.374-202.389-451.763-451.763-451.763-249.376 0-451.767 202.389-451.767 451.763 0 133.724 58.127 253.894 150.589 336.717v-35.539c0-16.564 13.553-30.118 30.118-30.118s30.118 13.553 30.118 30.118v105.412c0 14.758-10.541 27.407-25.299 29.817l-90.353 15.059c-16.263 2.711-31.924-8.433-34.635-24.697s8.433-31.924 24.696-34.635l31.021-5.12c-108.122-93.967-176.791-232.508-176.791-386.711 0-282.505 229.496-512 512-512s512 229.495 512 512c0 229.195-164.143 382.795-371.951 447.247-14.758 21.685-51.503 64.753-109.931 64.753-71.68 0-109.026-29.816-143.662-71.078-9.638-11.445-9.336-28.009 0.602-39.153 35.237-40.056 71.678-70.475 143.060-70.475 50.295 0 84.629 32.226 102.699 55.115h0.303v-0.301zM598.135 262.775c-21.082 32.529-55.718 98.487-55.718 184.32 0 79.514 29.517 141.855 50.901 176.49-4.215 8.433-10.24 18.372-18.372 28.009-20.783 24.396-53.308 45.478-99.989 33.732-46.080-11.444-72.585-34.334-87.644-59.332-25.901-42.164-18.372-93.063-12.348-117.157-6.626-6.929-12.349-13.252-17.469-18.974-17.769 15.659-42.164 36.139-63.548 50.898-22.889 15.962-44.574 24.998-56.32 24.998-17.468 0-33.732-9.035-46.080-26.805-16.564-24.092-25.6-67.766-25.6-93.664 0-25.903 9.036-69.572 25.6-93.666 12.348-17.771 28.612-26.807 46.080-26.807 11.746 0 33.431 9.037 56.32 24.998 21.384 15.061 45.779 35.541 63.548 50.901 14.156-16.866 35.539-38.852 64.753-60.237v-3.012c0.904-12.348-4.216-24.094-11.444-35.84-9.939-15.659-24.094-30.72-39.756-45.777-8.433-8.132-11.444-20.783-7.228-31.927 4.216-11.14 14.456-18.974 26.202-19.575 74.087-4.817 146.070 0 208.415 58.129h-0.303v0.299zM662.891 625.995c0 0-60.237-87.943-60.237-178.9 0-90.953 60.237-182.511 60.237-182.511 54.212 0 118.362 24.998 160.828 67.465 30.417 30.114 49.993 68.966 49.993 113.242 0 44.271-19.575 83.123-49.993 113.241-42.466 42.466-106.615 67.463-160.828 67.463zM693.009 535.642c16.563 0 30.114-13.552 30.114-30.119 0-16.563-13.551-30.114-30.114-30.114-16.567 0-30.118 13.551-30.118 30.114 0 16.567 13.551 30.119 30.118 30.119z" />
<glyph unicode="&#xe90d;" glyph-name="internet-site" d="M871.637 807.634c-36.005 35.989-84.825 56.207-135.73 56.207s-99.726-20.218-135.726-56.207l-447.943-447.943c-34.978-36.198-54.34-84.687-53.914-135.023s20.604-98.49 56.189-134.095c35.586-35.601 83.731-55.799 134.065-56.252 50.336-0.444 98.834 18.893 135.049 53.854h0.064l31.804 31.995c9.022 8.777 21.131 13.658 33.718 13.593s24.644-5.074 33.574-13.944c8.93-8.871 14.017-20.891 14.166-33.478s-4.652-24.73-13.37-33.809l-31.996-32.188c-54.004-54.007-127.249-84.343-203.622-84.343s-149.618 30.336-203.622 84.343c-54.004 54.007-84.343 127.248-84.343 203.622s30.339 149.617 84.343 203.622l447.942 447.942c53.97 54.038 127.195 84.423 203.569 84.471s149.633-30.245 203.674-84.215c54.042-53.97 84.42-127.196 84.471-203.569s-30.242-149.637-84.215-203.674l-221.091-227.363c-15.437-16.28-33.978-29.303-54.531-38.299s-42.697-13.786-65.131-14.083c-22.432-0.298-44.698 3.901-65.481 12.348s-39.665 20.973-55.529 36.837c-15.863 15.864-28.389 34.745-36.837 55.529s-12.646 43.049-12.348 65.482c0.298 22.432 5.087 44.578 14.083 65.131s22.019 39.093 38.299 54.53l220.771 220.836c4.425 4.586 9.719 8.245 15.574 10.763s12.151 3.844 18.523 3.903c6.373 0.058 12.693-1.153 18.592-3.564s11.26-5.972 15.768-10.476c4.508-4.505 8.075-9.861 10.491-15.759s3.633-12.216 3.581-18.589c-0.052-6.373-1.373-12.67-3.886-18.528s-6.166-11.154-10.748-15.584l-220.772-220.836c-6.701-6.668-12.024-14.591-15.664-23.316s-5.526-18.082-5.549-27.536c-0.024-9.454 1.814-18.82 5.41-27.564s8.879-16.693 15.547-23.395c6.669-6.702 14.591-12.025 23.316-15.665s18.082-5.525 27.536-5.549c9.454-0.024 18.82 1.815 27.564 5.411s16.693 8.879 23.395 15.547l221.027 227.363c35.994 36 56.209 84.821 56.209 135.726s-20.215 99.726-56.209 135.727l-0.060 0.064z" />
<glyph unicode="&#xe90e;" glyph-name="learder-borad" horiz-adv-x="985" d="M935.385 909.976h-147.692v49.231h-590.769v-49.231h-147.692c-29.538 0-49.231-19.692-49.231-49.231v-118.154c0-113.231 83.692-206.768 196.923-221.537v-4.923c0-142.769 98.462-260.923 231.385-290.462l-34.462-103.385h-113.231c-19.692 0-39.385-14.769-44.308-34.462l-39.385-113.231h590.769l-39.385 113.231c-4.923 19.692-24.615 34.462-44.308 34.462h-113.231l-34.462 103.385c132.923 29.538 231.385 147.692 231.385 290.462v4.923c113.231 14.769 196.923 108.306 196.923 221.537v118.154c0 29.538-19.692 49.231-49.231 49.231zM98.462 742.591v68.923h98.462v-192c-54.154 14.769-98.462 64-98.462 123.077zM590.769 466.901l-98.462 54.154-98.462-54.154 24.615 98.462-73.846 98.46h103.385l44.308 98.462 44.308-98.462h103.385l-73.846-98.46 24.615-98.462zM886.154 742.591c0-59.077-44.308-113.231-98.462-123.077v192h98.462v-68.923z" />
<glyph unicode="&#xe90f;" glyph-name="menu" horiz-adv-x="1214" d="M56.889 941.037h1099.852c10.473 0 18.963-8.49 18.963-18.963v-23.155c0-10.473-8.49-18.963-18.963-18.963h-1099.852c-10.473 0-18.963 8.49-18.963 18.963v23.155c0 10.473 8.49 18.963 18.963 18.963zM56.889 495.506h1099.852c10.473 0 18.963-8.49 18.963-18.963v-23.155c0-10.473-8.49-18.963-18.963-18.963h-1099.852c-10.473 0-18.963 8.49-18.963 18.963v23.155c0 10.473 8.49 18.963 18.963 18.963zM56.889 49.975h1099.852c10.473 0 18.963-8.49 18.963-18.963v-23.155c0-10.473-8.49-18.963-18.963-18.963h-1099.852c-10.473 0-18.963 8.49-18.963 18.963v23.155c0 10.473 8.49 18.963 18.963 18.963z" />
<glyph unicode="&#xe910;" d="M778.535 4.215c217.047 134.377 286.298 434.459 154.685 670.245-131.617 235.788-414.261 317.998-631.307 183.621-217.044-134.377-286.298-434.456-154.682-670.242 131.616-235.79 414.26-317.997 631.303-183.624z" />
<glyph unicode="&#xe911;" d="M800.817 89.965c179.327 188.858 179.327 495.062 0 683.921-179.323 188.86-470.071 188.86-649.397 0s-179.327-495.063 0-683.921c179.327-188.862 470.075-188.862 649.397 0z" />
<glyph unicode="&#xe912;" d="M476.14 32.42c209.506 0 379.343 178.864 379.343 399.507s-169.837 399.508-379.343 399.508c-209.503 0-379.34-178.866-379.34-399.508 0-220.643 169.837-399.507 379.34-399.507z" />
<glyph unicode="&#xe913;" d="M735.24 159.044c143.102 150.708 143.102 395.054 0 545.763s-375.113 150.708-518.214 0c-143.101-150.708-143.101-395.054 0-545.763s375.112-150.708 518.214 0z" />
<glyph unicode="&#xe914;" d="M458.17 376.3l0.115-134.218-90.552-0.090-0.333 395.592 149.888 0.136c28.717 0.024 54.133-5.518 76.251-16.641 22.106-11.116 39.231-26.951 51.376-47.5s18.223-43.864 18.248-69.947c0.029-38.584-13.062-69.427-39.264-92.549-26.21-23.114-62.19-34.701-107.938-34.742l-57.79-0.041zM458.109 449.929l59.339 0.057c17.543 0.016 30.913 4.649 40.104 13.89 9.191 9.249 13.779 22.295 13.771 39.137-0.012 18.473-4.76 33.235-14.225 44.27-9.47 11.035-22.372 16.64-38.711 16.808l-60.367-0.056 0.098-114.114-0.008 0.008z" />
<glyph unicode="&#xe915;" d="M450.613 368.321l0.111-134.222-90.551-0.086-0.333 395.592 149.887 0.136c28.717 0.024 54.137-5.518 76.251-16.641 22.106-11.115 39.231-26.951 51.376-47.499s18.227-43.863 18.248-69.947c0.033-38.584-13.058-69.427-39.264-92.549-26.21-23.118-62.19-34.701-107.934-34.742l-57.79-0.041zM450.544 441.958l59.335 0.057c17.543 0.016 30.913 4.649 40.104 13.89 9.191 9.249 13.783 22.295 13.775 39.133-0.016 18.477-4.764 33.235-14.23 44.27-9.47 11.039-22.372 16.643-38.711 16.81l-60.363-0.056 0.098-114.113-0.008 0.008z" />
<glyph unicode="&#xe916;" glyph-name="withdraw" horiz-adv-x="1003" d="M940.951 341.837c-23.689 29.489-66.658 34.675-96.683 11.467l-195.019-151.537c-9.641-7.646-21.76-11.742-33.879-11.742l-139.652-0.273c-19.006 0-34.43 15.29-34.43 34.131 0 18.839 15.424 34.129 34.43 34.129h117.067c38.012 0 68.862 30.581 68.862 68.262 0 37.679-30.85 68.26-68.862 68.26h-286.191c-36.911 0-72.994-12.288-101.917-34.95l-95.58-74.541c-6.060-4.642-7.162-13.378-2.204-19.113l185.653-232.907c2.479-3.275 6.609-5.186 10.741-5.186l287.019-2.458c37.737-0.273 74.37 12.013 103.842 35.221l236.060 184.851c29.199 23.755 34.432 66.895 10.743 96.384zM87.091 223.883c-4.683 6.005-13.497 6.825-19.281 2.185l-43.245-33.858c-6.060-4.642-6.886-13.38-2.204-19.113l181.245-227.445c4.683-6.007 13.497-6.827 19.281-2.185l43.247 33.858c6.059 4.64 6.886 13.378 2.204 19.113l-181.246 227.445zM616.503 959.46c-133.869 0-242.671-107.579-242.671-240.552 0-132.698 108.527-240.55 242.671-240.55 133.867 0 242.669 107.58 242.669 240.55 0 132.973-108.802 240.552-242.669 240.552zM603.006 765.326l55.917-28.669c33.329-16.93 51.232-52.151 45.173-89.013-4.683-28.941-22.863-51.603-48.48-62.799v-7.373c0-18.839-15.424-34.129-34.43-34.129s-34.432 15.29-34.432 34.129v5.188c-26.993 8.738-49.581 28.397-61.425 55.428-7.712 17.201 0.55 37.406 17.905 44.779 17.353 7.646 37.737-0.546 45.173-17.747 5.783-13.107 19.281-20.751 33.329-19.661 10.741 1.638 13.498 7.646 14.323 12.561 0.55 3.004 1.101 12.559-8.815 17.747l-55.915 28.67c-33.606 17.474-51.509 54.063-44.623 91.197 6.059 32.492 29.197 57.066 60.047 65.257v5.188c0 18.84 15.426 34.13 34.432 34.13s34.43-15.29 34.43-34.13v-12.56c21.485-10.376 39.115-27.577 49.030-50.24 7.712-17.202-0.275-37.407-17.905-44.779-17.628-7.645-37.737 0.273-45.449 17.748-5.783 13.106-19.281 21.024-33.329 19.659-10.466-1.092-13.22-8.464-14.048-12.56 0-4.096-0.55-13.106 9.090-18.021z" />
<glyph unicode="&#xe917;" horiz-adv-x="1152" d="M547.907 940.497c12.128 22.236 44.058 22.236 56.186 0l522.093-957.172c11.632-21.325-3.802-47.325-28.093-47.325h-1044.188c-24.29 0-39.724 26-28.093 47.325l522.095 957.172z" />
<glyph unicode="&#xe918;" horiz-adv-x="1152" d="M600.323 291.84h-50.56c-1.92 53.76-12.16 241.92-14.72 294.4h80c-2.56-53.12-12.16-243.84-14.72-294.4zM531.843 170.24c0 25.6 19.2 45.44 43.52 45.44 25.6 0 44.8-19.84 44.8-45.44 0-23.68-19.2-43.52-44.8-43.52-24.32 0-43.52 19.84-43.52 43.52z" />
<glyph unicode="&#xe919;" glyph-name="search" horiz-adv-x="931" d="M117.644 808.355c-109.25-127.512-113.803-327.308-9.484-459.692 112.285-142.946 303.093-163.249 437.757-60.914l279.957-299.697c21.62-23.147 56.902-23.147 78.522 0 21.625 23.147 21.625 60.914 0 84.061l-279.952 299.697c89.903 136.039 78.145 326.089-36.040 447.916-130.492 139.695-344.44 136.040-470.76-11.371zM506.847 413.635c-82.317-88.12-215.465-88.12-297.403 0-82.317 88.122-82.317 230.659 0 318.375s215.466 88.121 297.403 0c81.939-88.122 82.316-230.659 0-318.375z" />
<glyph unicode="&#xe91a;" glyph-name="svg" horiz-adv-x="707" d="M266.528-62.781v105.223h-266.528v789.174h266.528v105.223h124.121v-105.223h39.344c82.008 0 143.514-18.79 185.073-56.369 41.557-37.58 62.615-90.727 62.615-159.445 0-41.874-8.314-76.771-24.381-104.687-16.625-27.916-38.234-49.927-65.387-65.495 37.127-12.885 65.941-32.212 86.996-57.444 21.058-25.232 31.586-63.349 31.586-113.813 0-75.159-22.718-132.603-68.157-172.329-45.436-39.726-110.821-59.592-196.155-59.592h-52.087v-105.223h-123.568zM203.359 510.579h63.168v178.771h-63.168v-178.771zM203.359 183.635h63.168v191.12h-63.168v-191.12zM390.649 511.651c27.707 3.223 48.208 12.349 60.952 26.843 12.746 14.494 18.842 34.896 18.842 60.128s-6.095 46.707-17.732 61.201c-11.637 14.494-32.692 23.62-62.062 26.841v-175.014zM390.649 183.635c37.127 0 64.278 7.517 82.010 22.011 17.73 14.494 26.597 40.802 26.597 78.38 0 28.455-8.311 50.466-24.381 66.033-16.623 15.57-44.329 23.623-84.226 24.695v-191.12z" />
<glyph unicode="&#xe91b;" glyph-name="account" horiz-adv-x="964" d="M565.507 494.2v25.48c0 7.134-6.028 12.74-13.7 12.74h-137.009c-7.672 0-13.7-5.606-13.7-12.74v-25.48c0-6.626 5.479-11.722 12.33-12.487v-306.272c-6.851-0.765-12.33-5.861-12.33-12.485v-25.48c0-7.136 6.028-12.742 13.7-12.742h137.009c7.672 0 13.7 5.606 13.7 12.742v25.48c0 6.624-5.479 11.72-12.33 12.485v306.272c6.851 0.765 12.33 5.861 12.33 12.487zM935.438 61.046h-904.252c-15.071 0-27.401-11.467-27.401-25.482v-76.441c0-7.134 6.028-12.74 13.701-12.74h931.654c7.672 0 13.7 5.606 13.7 12.74v76.441c0 14.015-12.33 25.482-27.401 25.482zM127.091 162.967v-25.48c0-7.136 6.028-12.74 13.701-12.74h137.007c7.674 0 13.702 5.604 13.702 12.74v25.48c0 7.134-6.028 12.74-13.702 12.74v305.764c7.674 0 13.702 5.606 13.702 12.74v25.48c0 7.136-6.028 12.74-13.702 12.74h-137.007c-7.672 0-13.701-5.604-13.701-12.74v-25.48c0-7.134 6.028-12.74 13.701-12.74v-305.764c-7.672 0-13.701-5.606-13.701-12.74zM949.14 705.442l-452.126 240.279c-8.495 4.586-18.633 4.586-27.128 0l-452.4-240.279c-8.494-4.586-13.701-12.995-13.701-22.169v-74.401c0-7.136 6.028-12.742 13.701-12.742h931.654c7.672 0 13.7 5.606 13.7 12.742v74.401c0 9.174-5.206 17.583-13.7 22.169zM483.312 666.202c-43.568 0-78.916 32.868-78.916 73.383s35.348 73.383 78.916 73.383c43.568 0 78.916-32.87 78.916-73.383s-35.348-73.383-78.916-73.383zM675.123 162.967v-25.48c0-7.136 6.028-12.74 13.702-12.74h137.007c7.672 0 13.702 5.604 13.702 12.74v25.48c0 7.134-6.030 12.74-13.702 12.74v305.764c7.672 0 13.702 5.606 13.702 12.74v25.48c0 7.136-6.030 12.74-13.702 12.74h-137.007c-7.674 0-13.702-5.604-13.702-12.74v-25.48c0-6.116 4.658-10.957 10.961-12.23v-306.784c-6.303-1.273-10.961-6.114-10.961-12.23z" />
<glyph unicode="&#xe91c;" glyph-name="affiliate" d="M85.673 583.942c0 78.146 63.571 141.697 141.717 141.697s141.717-63.571 141.717-141.697c0-78.129-63.57-141.719-141.717-141.719s-141.717 63.573-141.717 141.719zM390.981 390.946l-8.976 7.2c-26.439 21.209-59.667 32.898-93.561 32.898-16.566 0-30.438-12.565-32.079-29.054-1.481-14.945-13.95-26.204-29.013-26.204s-27.532 11.259-29.015 26.204c-1.639 16.489-15.493 29.054-32.078 29.054-33.893 0-67.122-11.689-93.561-32.898l-8.975-7.2c-35.551-28.527-55.942-71.023-55.942-116.604v-65.131c0-17.795 14.439-32.236 32.234-32.236h374.633c17.795 0 32.236 14.441 32.236 32.236v65.131c0 45.58-20.39 88.076-55.943 116.604h0.040zM678.552 809.834c17.795 0 32.234 14.439 32.234 32.234s-14.438 32.234-32.234 32.234c-92.177 0-167.182-74.985-167.182-167.18v-223.572h-38.263c-17.795 0-32.236-14.438-32.236-32.234s14.441-32.234 32.236-32.234h38.263v-223.572c0-92.175 74.984-167.179 167.182-167.179 17.795 0 32.234 14.438 32.234 32.234s-14.438 32.234-32.234 32.234c-56.645 0-102.732 46.087-102.732 102.732v223.572h102.732c17.795 0 32.234 14.438 32.234 32.234s-14.438 32.234-32.234 32.234h-102.732v223.572c0 56.643 46.087 102.731 102.732 102.731v-0.039zM898.103 733.307c59.979 0 108.761 48.8 108.761 108.761s-48.8 108.761-108.761 108.761c-59.961 0-108.761-48.8-108.761-108.761s48.8-108.761 108.761-108.761zM898.103 169.327c-59.981 0-108.761-48.8-108.761-108.761s48.8-108.761 108.761-108.761c59.961 0 108.761 48.8 108.761 108.761s-48.8 108.761-108.761 108.761zM898.103 560.078c-59.981 0-108.761-48.8-108.761-108.761s48.8-108.761 108.761-108.761c59.961 0 108.761 48.8 108.761 108.761s-48.8 108.761-108.761 108.761z" />
<glyph unicode="&#xe91d;" glyph-name="avatar" horiz-adv-x="974" d="M479.407 449.096c130.15 0 236.162 111.591 236.162 248.59 0 137.002-106.011 248.381-236.162 248.381s-236.163-111.591-236.163-248.591c0-137.001 106.012-248.38 236.163-248.38zM538.347 521.938c-3.422-1.271-6.841-2.543-10.462-3.601l10.462 3.601zM668.907 435.967c-13.477 6.142-29.571 0.847-37.214-12.705-32.388-57.381-89.315-91.685-152.279-91.685s-120.093 34.304-152.279 91.685c-7.643 13.552-23.535 18.847-37.214 12.705-173.199-79.617-285.044-259.177-285.044-457.798 0-17.151 13.277-31.127 29.571-31.127h890.133c16.294 0 29.571 13.976 29.571 31.127-0.202 198.621-112.048 378.181-285.246 457.798z" />
<glyph unicode="&#xe91e;" glyph-name="cash" horiz-adv-x="1671" d="M1342.901 246.294h-1302.901v703.009h1302.901v-703.009zM124.627 325.896h1133.643v543.971h-1133.643v-543.971zM230.411 777.359c31.030 32.933 27.857 83.077-7.228 112.203-34.909 29.127-88.505 26.148-119.535-6.785-31.030-32.767-27.856-83.077 7.229-112.203 34.908-29.127 88.505-26.148 119.535 6.785zM1152.49 777.359c-31.033 32.933-27.858 83.077 7.227 112.203s88.506 26.148 119.539-6.785c31.027-32.933 27.853-83.077-7.233-112.203-34.908-29.127-88.506-26.148-119.533 6.785zM230.411 418.245c31.030-32.935 27.857-83.079-7.228-112.203s-88.505-26.15-119.535 6.785c-31.030 32.93-27.856 83.073 7.229 112.202 34.908 29.126 88.505 26.148 119.535-6.784zM1152.49 418.245c-31.033-32.935-27.858-83.079 7.227-112.203s88.506-26.15 119.539 6.785c31.027 32.93 27.853 83.073-7.233 112.202-34.908 29.126-88.506 26.148-119.533-6.784zM691.464 890.882c-133.109 0-240.832-131.235-240.832-293.085s107.901-293.087 240.832-293.087c133.109 0 240.834 131.236 240.834 293.087s-107.725 293.085-240.834 293.085zM713.679 456.136v-47.167h-48.306v44.022c-33.145 1.324-65.056 9.764-83.925 19.859l14.81 54.116c20.803-10.591 49.896-20.356 81.807-20.356 28.209 0 47.25 10.26 47.25 28.631 0 17.542-15.689 28.63-52.186 40.214-52.714 16.715-88.856 39.883-88.856 84.732 0 40.711 30.499 72.651 83.391 82.415v44.021h48.306v-40.711c32.973-1.324 55.183-7.944 71.583-15.225l-14.282-52.295c-12.87 5.13-35.436 15.722-71.049 15.722-32.089 0-42.313-12.908-42.313-25.982 0-15.225 17.273-24.989 59.236-39.884 58.713-19.362 82.335-44.848 82.335-86.552 0-41.042-31.027-76.291-87.8-85.559zM1396.326 814.921v-623.573h-1218.274v-79.435h1302.899v703.009h-84.626zM1536.641 683.026v-623.408h-1218.273v-79.597h1303.076v703.005h-84.803z" />
<glyph unicode="&#xe91f;" glyph-name="chat" horiz-adv-x="1077" d="M1029.876 792.599c28.617-56.087 28.617-129.504 28.617-276.359v-62.11c0-88.573 0-132.863-10.605-168.997-25.169-85.688-92.268-152.692-178.074-177.827-36.184-10.592-80.534-10.592-169.23-10.592h-32.245c-53.579-0.347-105.763-17.043-149.559-47.871l-139.876-99.782c-46.996-33.511-108.759 14.893-87.303 68.44 15.2 37.938-12.782 79.195-53.704 79.195h-31.59c-109.395 0-198.051 88.555-198.051 197.797v221.728c0 146.852 0 220.27 28.615 276.357 25.169 49.327 65.333 89.456 114.749 114.591 56.144 28.597 129.662 28.597 276.719 28.597h210.051c147.057 0 220.575 0 276.737-28.576 49.396-25.134 89.579-65.244 114.748-114.591zM323.314 660.454c-21.746 0-39.385-17.618-39.385-39.332s17.639-39.329 39.385-39.329h210.051c21.743 0 39.385 17.615 39.385 39.329s-17.642 39.332-39.385 39.332h-210.051zM323.314 450.691c-21.746 0-39.385-17.618-39.385-39.332 0-21.711 17.639-39.329 39.385-39.329h420.103c21.743 0 39.385 17.618 39.385 39.329 0 21.714-17.642 39.332-39.385 39.332h-420.103z" />
<glyph unicode="&#xe920;" glyph-name="copy" d="M320 816c0 44.203 35.84 80 80 80h16c42.435 0 83.131-16.857 113.137-46.863s46.863-70.703 46.863-113.137v-80c0-44.203 35.84-80 79.997-80h80.003c42.433 0 83.132-16.857 113.135-46.863 30.009-30.006 46.865-70.703 46.865-113.137v-144.003c0-44.157-35.84-79.997-79.997-79.997h-416.003c-21.217 0-41.566 8.431-56.569 23.433s-23.431 35.351-23.431 56.565v544.003zM640 735.997c0.074 53.822-19.308 105.858-54.574 146.517 71.396-18.772 136.522-56.17 188.723-108.369 52.196-52.198 89.594-117.325 108.368-188.719-40.658 35.265-92.695 54.645-146.517 54.571h-80.003c-4.238 0-8.311 1.686-11.31 4.687-3.004 3-4.688 7.070-4.688 11.313v80zM208 703.997h48v-431.999c0-38.19 15.171-74.82 42.177-101.825s63.632-42.177 101.823-42.177h304v-47.997c0-44.163-35.84-80.003-79.997-80.003h-416.003c-21.217 0-41.566 8.431-56.569 23.433s-23.431 35.351-23.431 56.57v543.999c0 44.203 35.84 80 80 80z" />
<glyph unicode="&#xe921;" glyph-name="crash" d="M1020.317 164.85l-88.236 123.058 16.311 32.384c7.106 14.106 1.335 31.249-12.879 38.301l-10.128 5.025c-14.075 6.977-31.182 1.314-38.213-12.653l-0.128-0.255-59.974 83.634 16.542 32.855c7.108 14.106 1.337 31.249-12.879 38.29l-9.871 4.898c-14.214 7.054-31.489 1.325-38.584-12.781l-0.232-0.471-58.853 82.076c34.818 69.69 54.251 105.978 70.227 144.906 12.995 31.644 20.399 57.982 23.985 79.869 0 0 28.765 136.117-3.895 152.086-32.646 15.969-126.499-90.29-126.499-90.29l0.321-0.038c-13.507-14.617-28.032-33.71-43.34-58.582-22.261-36.172-48.75-81.157-78.686-147.775l-111.473-2.819 1.567 3.124c7.108 14.108 1.337 31.249-12.877 38.303l-9.873 4.898c-14.214 7.040-31.489 1.325-38.597-12.781l-17.877-35.51-103.403-2.614 1.337 2.653c7.108 14.106 1.337 31.249-12.879 38.301l-9.871 4.898c-14.216 7.040-31.489 1.327-38.597-12.779l-17.634-35.038-145.689-3.686c-5-0.128-9.421-3.265-11.169-7.92l-21.67-57.956c-2.583-6.901 1.568-14.491 8.804-16.098l442.13-98.146-0.539-1.633c0 0-86.039-210.579-122.092-311.315l-155.867-11.403c-0.36-0.025-0.681-0.242-0.848-0.56l-12.146-23.724c-0.296-0.574 0.013-1.275 0.643-1.455l158.336-43.978-5.296-22.091c-2.751-11.453 2.815-23.276 13.432-28.531l0.359-0.18c10.617-5.267 23.482-2.575 31.052 6.48l14.614 17.462 120.227-94.131c0.514-0.408 1.271-0.23 1.567 0.357l11.826 23.89c0.153 0.305 0.141 0.676-0.039 0.968l-73.276 123.185c52.042 78.659 158.053 256.572 176.37 287.387l343.508-290.638c5.694-4.809 14.357-3.495 18.33 2.792l33.006 52.243c2.649 4.158 2.494 9.49-0.384 13.507z" />
<glyph unicode="&#xe922;" glyph-name="customer-service" horiz-adv-x="1109" d="M1107.644-17.771l-50.692 156.028c-2.816 8.956-1.971 18.492 2.253 26.871 38.020 75.989 53.79 165.564 37.457 260.045-25.348 144.759-128.704 265.246-262.758 311.477 34.637-85.815 45.060-181.165 27.878-275.65-35.204-192.141-185.028-344.704-373.158-379.085-24.218-4.625-49.003-6.647-73.503-7.223 57.17-63.279 133.492-108.066 218.544-123.955 91.529-16.759 178.551-1.156 252.339 37.274 8.166 4.331 17.459 5.201 25.907 2.308l152.644-52.297c26.475-9.246 52.1 17.045 43.089 44.207zM326.954 952.769c-158.557-30.339-285.571-162.384-314.016-325.345-16.616-94.483-0.845-184.053 37.457-260.047 4.224-8.375 5.069-17.911 2.253-26.871l-50.693-156.023c-9.012-27.452 16.616-53.457 43.371-44.497l152.643 52.297c8.73 2.889 17.743 2.022 25.91-2.313 73.786-38.43 160.809-54.029 252.337-37.274 158.276 29.184 286.699 159.206 316.553 321.301 51.819 286.050-187.285 531.937-465.814 478.772zM399.895 289.075c-27.6 0-50.13 23.117-50.13 51.43 0 28.318 22.53 51.435 50.13 51.435s50.131-23.117 50.131-51.435c-0.282-28.604-22.532-51.43-50.131-51.43zM448.337 514.159l0.845-20.224c0-28.028-21.969-50.564-49.286-50.564s-49.285 22.537-49.285 50.564v18.202c0 43.919 25.91 82.926 64.775 97.084 18.023 6.646 30.417 24.271 30.417 44.208 0 11.846-5.073 23.982-13.803 32.939-9.011 9.246-19.713 13.869-32.105 14.158-25.065 0-45.624-21.382-45.624-47.097 0-28.027-21.967-50.564-49.285-50.564s-49.285 22.537-49.285 50.564c0 81.192 64.493 147.648 143.631 148.226 38.3 1.445 74.912-15.892 102.513-43.919 27.319-28.027 43.089-66.456 42.807-105.174-0.845-61.833-39.147-117.598-96.316-138.403z" />
<glyph unicode="&#xe923;" glyph-name="deposit" horiz-adv-x="1045" d="M799.744 959.46c-132.403 0-239.765-107.614-239.765-240.33s107.362-240.329 239.765-240.329c132.401 0 239.763 107.614 239.763 240.329s-107.362 240.33-239.763 240.33zM788.021 765.060l54.080-28.038c32.235-16.557 49.551-51.004 43.691-87.319-4.529-28.305-22.112-50.47-46.889-61.419v-7.209c0-18.426-14.918-33.38-33.299-33.38-18.383 0-33.301 14.955-33.301 33.38v5.073c-26.108 8.544-47.953 27.772-59.407 54.208-7.46 16.823 0.267 36.582 17.316 44.060s36.497-0.533 43.955-17.357c5.596-12.817 18.65-20.561 32.235-19.226 10.391 1.602 13.054 7.475 13.854 12.282 0.533 2.938 1.067 12.284-8.525 17.359l-54.080 28.305c-32.768 16.823-50.084 52.605-43.157 88.921 5.86 31.777 28.239 55.81 58.076 63.821v5.073c0 18.425 14.918 33.379 33.301 33.379 18.381 0 33.299-14.954 33.299-33.379v-12.284c20.781-10.147 37.83-26.97 47.42-49.134 7.46-16.823-0.531-36.583-17.316-43.793-16.783-7.477-36.497 0.534-43.689 17.357-5.596 12.817-18.65 20.561-32.237 19.226-10.123-1.068-12.787-8.278-13.585-12.284-0.533-3.738-1.067-12.551 8.258-17.624zM775.511 393.619c-19.714 3.204-42.093-4.54-57.811-17.89-5.327 22.163-26.374 40.855-48.751 44.593-18.65 2.938-39.962-3.738-55.147-16.021-6.927 21.363-29.57 38.987-51.415 42.724-21.045 3.473-49.818-7.744-62.338-23.499v168.766c0 23.232-13.587 45.929-35.966 52.873-36.764 11.748-70.596-15.488-70.596-50.737v-427.251c-29.306 0-53.28 24.032-53.28 53.406v48.333c0 10.148-8.26 18.426-18.383 18.426h-15.985c-39.693 0-71.927-32.311-71.927-72.098v-131.915c0-22.965 9.856-45.129 27.172-60.35l71.663-63.019c14.652-12.819 33.301-19.761 52.749-19.761h294.908c21.314 0 41.559 8.544 56.478 23.499l59.676 59.814c14.918 14.955 23.443 35.516 23.443 56.612v257.685c-0.267 26.972-18.381 51.537-44.489 55.81zM326.886 447.827h-66.603c-14.652 0-26.639 12.017-26.639 26.703v320.439c0 14.687 11.987 26.703 26.639 26.703h250.955c10.389 28.839 24.774 55.81 42.624 80.11h-426.78c-58.875 0-106.562-47.799-106.562-106.813v-320.439c0-59.014 47.686-106.812 106.562-106.812h199.804v80.109zM148.128 589.621c-24.775 0-44.756 20.028-44.756 44.862s19.98 44.862 44.756 44.862c24.776 0 44.756-20.028 44.756-44.862 0-24.567-19.98-44.862-44.756-44.862z" />
<glyph unicode="&#xe924;" glyph-name="detail" d="M496 256c21.218 0 41.566 8.427 56.567 23.433 15.006 15.002 23.433 35.349 23.433 56.567s-8.427 41.566-23.433 56.567c-15.002 15.006-35.349 23.433-56.567 23.433s-41.566-8.427-56.567-23.433c-15.004-15.002-23.433-35.349-23.433-56.567s8.428-41.566 23.433-56.567c15.002-15.006 35.349-23.433 56.567-23.433zM240 896h144c42.435 0 83.132-16.857 113.139-46.863 30.003-30.006 46.861-70.703 46.861-113.137v-80c0-44.203 35.84-80 80-80h80c42.436 0 83.132-16.857 113.139-46.861 30.003-30.007 46.861-70.703 46.861-113.139v-336c0-44.16-35.84-80-80-80h-544c-21.217 0-41.565 8.427-56.569 23.433-15.003 15.002-23.431 35.349-23.431 56.567v736c0 44.203 35.84 80 80 80zM496 192c28.16 0 54.485 8.107 76.672 22.101l44.715-44.715c6.067-5.653 14.089-8.73 22.379-8.585 8.29 0.149 16.201 3.507 22.063 9.37s9.22 13.773 9.37 22.063c0.145 8.29-2.931 16.311-8.585 22.379l-44.672 44.715c17.003 27.029 24.538 58.94 21.423 90.718s-16.704 61.623-38.63 84.834c-21.926 23.215-50.944 38.481-82.496 43.401-31.548 4.919-63.838-0.785-91.79-16.218-27.953-15.437-49.984-39.723-62.627-69.043s-15.183-62.012-7.22-92.932c7.964-30.925 25.979-58.321 51.213-77.888 25.236-19.563 56.254-30.187 88.186-30.199zM608 736c0.077 53.822-19.307 105.858-54.571 146.517 71.394-18.772 136.521-56.169 188.719-108.369s89.596-117.326 108.369-188.719c-40.661 35.265-92.693 54.645-146.517 54.571h-80c-4.241 0-8.311 1.686-11.315 4.687-2.999 3-4.685 7.070-4.685 11.313v80z" />
<glyph unicode="&#xe925;" glyph-name="disconnection-Policy" horiz-adv-x="874" d="M713.83 927.376c0 16.137-13.167 29.21-29.416 29.21h-131.926l161.36-160.234v131.024h-0.017zM537.318 889.015v-107.688h108.444l-108.444 107.688zM553.022 298.361c0 71.942 58.95 130.478 131.397 130.478 10.12 0 19.943-1.171 29.414-3.337v297.386h-205.924c-16.252 0-29.416 13.073-29.416 29.21v204.488h-441.248c-16.25 0-29.415-13.073-29.415-29.21v-808.175c0-16.137 13.165-29.211 29.415-29.211h415.763v153.855c0 16.137 13.165 29.209 29.414 29.209h70.601v25.308zM154.905 839.746h235.341c16.252 0 29.416-13.073 29.416-29.21s-13.165-29.21-29.416-29.21h-235.341c-16.25 0-29.415 13.073-29.415 29.21s13.165 29.21 29.415 29.21zM154.905 722.888h235.341c16.252 0 29.416-13.073 29.416-29.21s-13.165-29.209-29.416-29.209h-235.341c-16.25 0-29.415 13.072-29.415 29.209s13.165 29.21 29.415 29.21zM390.246 313.931h-235.341c-16.25 0-29.415 13.075-29.415 29.211s13.165 29.209 29.415 29.209h235.341c16.252 0 29.416-13.072 29.416-29.209s-13.165-29.211-29.416-29.211zM406.615 430.772h-251.71c-16.25 0-29.415 13.072-29.415 29.209s13.165 29.209 29.415 29.209h251.69c16.249 0 29.416-13.072 29.416-29.209s-13.167-29.209-29.416-29.209h0.020zM154.905 547.63c-16.25 0-29.415 13.072-29.415 29.209s13.165 29.209 29.415 29.209h411.834c16.249 0 29.414-13.072 29.414-29.209s-13.165-29.209-29.414-29.209h-411.834zM756.978 298.361v-25.308h58.833v25.308c0 61.912-43.642 113.834-101.98 127.141v-61.288c25.385-11.239 43.148-36.507 43.148-65.853zM611.852 298.361v-25.305h101.983v91.161c-9.001 3.979-18.944 6.204-29.416 6.204-40.006 0-72.567-32.331-72.567-72.060zM511.85 214.615v-128.527c0-70.868 58.063-128.527 129.429-128.527h86.281c71.368 0 129.431 57.659 129.431 128.527v128.527h-345.14zM713.845 58.83c0-16.137-13.165-29.209-29.416-29.209-16.249 0-29.414 13.072-29.414 29.209v52.586c0 16.137 13.165 29.209 29.414 29.209 16.252 0 29.416-13.072 29.416-29.209v-52.586z" />
<glyph unicode="&#xe926;" glyph-name="download-mobile-app" horiz-adv-x="745" d="M629.053 960h-469.877c-63.185 0-114.153-46.72-114.153-104.64v-815.037c0-57.605 50.968-104.322 114.153-104.322h470.226c62.836 0 114.153 46.718 114.153 104.639v814.721c-0.349 57.92-51.316 104.64-114.502 104.64zM673.387 224h-558.546v544h558.546v-544zM373.865 313.6c5.935-6.083 14.313-9.602 23.389-9.602s17.455 3.519 23.389 9.602l139.987 142.397c8.378 8.322 10.473 20.48 5.236 31.041-4.887 10.561-16.407 17.28-28.625 17.28h-66.327v155.2c0 16-13.965 28.8-31.42 28.8h-84.829c-17.455 0-31.418-12.8-31.418-28.8v-155.52h-66.327c-12.567 0-23.738-6.72-28.625-17.282-4.887-10.557-2.793-22.719 5.236-31.037l140.335-142.080z" />
<glyph unicode="&#xe927;" horiz-adv-x="1047" d="M1046.756 448c0 282.776-234.319 512-523.378 512s-523.378-229.224-523.378-512c0-255.545 191.362-467.399 441.576-505.781v357.795h-132.899v147.986h132.899v112.792c0 128.341 78.159 199.186 197.721 199.186 57.298 0 117.159-10.012 117.159-10.012v-125.991h-65.984c-65.056 0-85.292-39.442-85.292-79.947v-96.028h145.151l-23.183-147.986h-121.968v-357.795c250.213 38.382 441.576 250.236 441.576 505.781z" />
<glyph unicode="&#xe928;" horiz-adv-x="1047" d="M727.058 300.014l23.183 147.986h-145.071v96.028c0 40.505 20.237 79.947 85.29 79.947h65.984v125.991c0 0-59.858 10.012-117.159 10.012-119.562 0-197.721-70.845-197.721-199.186v-112.792h-132.897v-147.986h132.897v-357.795c26.674-4.096 53.967-6.219 81.804-6.219 27.835 0 55.128 2.123 81.802 6.219v357.795h121.888z" />
<glyph unicode="&#xe929;" glyph-name="faq" horiz-adv-x="1050" d="M790.175 787.237c-46.861 0-85-37.186-85-82.875 0-45.687 38.139-82.874 85-82.874 14.799 0 28.741 3.722 40.881 10.237l-18.081 17.628c-9.759 9.516-9.759 24.96 0 34.476 9.761 9.516 25.6 9.516 35.361 0l17.539-17.103c5.942 11.31 9.3 24.084 9.3 37.636 0 45.708-38.139 82.875-85 82.875zM499.021 674.158h60.298l-30.019 77.551-30.3-77.551h0.020zM937.024 952.987h-680c-52.459 0-94.999-41.476-94.999-92.625v-312c0-51.149 42.54-92.626 94.999-92.626h85.002v-106.058c0-26.053 32.32-39.117 51.218-20.69l130.002 126.748h413.778c52.462 0 95.002 41.477 95.002 92.626v312c0 51.149-42.54 92.625-95.002 92.625zM385.106 682.015h-57.080v-84.902c0-13.455-11.2-24.374-25.001-24.374-13.798 0-24.998 10.918-24.998 24.374v214.5c0 13.455 11.2 24.375 24.998 24.375h89.16c13.801 0 25.001-10.92 25.001-24.375s-11.2-24.375-25.001-24.375h-64.159v-56.472h57.080c13.798 0 24.998-10.92 24.998-24.375s-11.2-24.376-24.998-24.376zM624.704 574.318c-2.898-1.073-5.898-1.58-8.819-1.58-10.099 0-19.62 6.006-23.401 15.775l-14.28 36.895h-98.22l-14.438-36.974c-4.92-12.577-19.361-18.895-32.261-14.098s-19.379 18.877-14.459 31.455l82.598 211.477c0.079 0.195 0.141 0.37 0.22 0.546 4.621 11.017 15.521 18.154 27.72 18.174h0.020c12.201 0 23.081-7.118 27.72-18.116 0.1-0.214 0.179-0.448 0.261-0.663l81.859-211.498c4.882-12.595-1.638-26.655-14.559-31.414l0.038 0.020zM918.705 580.751c-9.759-9.516-25.6-9.516-35.359 0l-16.061 15.66c-21.88-14.899-48.458-23.672-77.1-23.672-74.44 0-134.999 59.044-134.999 131.624s60.559 131.625 134.999 131.625 134.999-59.046 134.999-131.625c0-27.066-8.42-52.241-22.838-73.184l16.379-15.969c9.759-9.516 9.759-24.96 0-34.476l-0.020 0.018zM435.666 287.629c-17.042-16.614-39.56-25.759-63.421-25.759-49.738 0-90.22 39.388-90.22 87.808v47.56h-25.001c-85.479 0-154.999 67.802-154.999 151.124v38.825c-52-0.527-94-41.769-94-92.605v-312c0-51.149 42.54-92.626 95-92.626h45v-106.058c0-26.053 32.32-39.119 51.22-20.69l129.999 126.748h413.78c52.46 0 95.002 41.477 95.002 92.626v214.656h-289.94l-112.42-109.609z" />
<glyph unicode="&#xe92a;" glyph-name="forgot-Password" horiz-adv-x="693" d="M206.085 701.605c0 77.982 63.013 141.421 140.473 141.421s140.472-63.439 140.472-141.421v-98.463h97.937v98.463c0 132.557-106.731 240.020-238.408 240.020s-238.411-107.463-238.411-240.020v-98.463h97.938v98.463zM621.478 553.842h-549.862c-37.471 0-67.851-30.584-67.851-68.319v-454.966c0-37.725 30.38-68.31 67.851-68.31h549.853c37.469 0 67.849 30.584 67.849 68.31v454.966c0.012 37.734-30.368 68.319-67.84 68.319zM380.826 246.402v-81.553c0-19.058-15.348-34.509-34.28-34.509-18.929 0-34.277 15.45-34.277 34.509v81.553c-23.29 12.402-39.175 37.024-39.175 65.4 0 40.84 32.887 73.951 73.452 73.951s73.454-33.111 73.454-73.951c0-28.377-15.884-53.007-39.174-65.4z" />
<glyph unicode="&#xe92b;" glyph-name="home" horiz-adv-x="801" d="M662.045-58.744h-507.809c-73.326 0-132.823 58.918-132.823 131.212v140.889c0 28.32 23.194 51.233 51.861 51.233s51.861-22.913 51.861-51.233v-140.889c0-15.796 12.965-28.605 28.956-28.605h507.809c15.99 0 28.955 12.809 28.955 28.605v752.546c0 15.797-12.965 28.605-28.955 28.605h-507.665c-15.99 0-28.956-12.808-28.956-28.605v-146.723c0-28.32-23.194-51.233-51.861-51.233s-51.861 22.913-51.861 51.233v146.723c-0.144 72.437 59.352 131.212 132.678 131.212h507.809c73.18 0 132.822-58.775 132.822-131.212v-752.546c-0.145-72.294-59.641-131.212-132.822-131.212zM77.731 398.933h332.056c28.668 0 51.861 22.911 51.861 51.231s-23.194 51.233-51.861 51.233h-332.056c-28.668 0-51.861-22.913-51.861-51.233s23.194-51.231 51.861-51.231zM293.249 534.982l85.86-84.818-85.86-84.818c-33.278-32.875-9.795-89.088 37.311-89.088 13.975 0 27.372 5.552 37.311 15.229l132.39 130.785c15.56 15.369 15.56 40.274 0 55.643l-132.39 130.785c-9.939 9.819-23.336 15.226-37.311 15.226-46.962 0.142-70.589-56.071-37.311-88.943z" />
<glyph unicode="&#xe92c;" horiz-adv-x="1045" d="M-21.333 992.854h1088v-1088h-1088v1088z" />
<glyph unicode="&#xe92d;" horiz-adv-x="1045" d="M522.669 708.286c84.627 0 94.618-0.299 128.021-1.869 30.869-1.423 47.646-6.583 58.829-10.923 14.765-5.76 25.353-12.642 36.461-23.789 11.11-11.147 17.969-21.694 23.712-36.58 4.324-11.221 9.468-28.053 10.884-59.023 1.491-33.515 1.865-43.614 1.865-128.446s-0.299-94.929-1.865-128.444c-1.417-30.97-6.56-47.802-10.884-59.023-5.743-14.812-12.602-25.436-23.712-36.58-11.108-11.147-21.621-18.029-36.461-23.789-11.183-4.339-27.959-9.502-58.829-10.923-33.404-1.495-43.394-1.871-128.021-1.871s-94.618 0.301-128.021 1.871c-30.869 1.421-47.646 6.583-58.829 10.923-14.765 5.76-25.353 12.642-36.461 23.789-11.11 11.145-17.969 21.694-23.71 36.58-4.326 11.221-9.47 28.053-10.886 59.023-1.491 33.515-1.865 43.612-1.865 128.444s0.299 94.931 1.865 128.446c1.417 30.97 6.56 47.802 10.886 59.023 5.741 14.812 12.599 25.434 23.71 36.58 11.108 11.147 21.623 18.029 36.461 23.789 11.183 4.339 27.959 9.5 58.829 10.923 33.404 1.495 43.394 1.869 128.021 1.869zM522.669 765.514c-86.044 0-96.855-0.374-130.633-1.945-33.7-1.571-56.74-6.882-76.947-14.812-20.802-8.154-38.473-19.002-56.143-36.655-17.598-17.655-28.484-35.386-36.535-56.331-7.829-20.198-13.198-43.313-14.764-77.201s-1.939-44.736-1.939-131.063c0-86.327 0.373-97.175 1.939-131.061 1.566-33.813 6.86-56.93 14.764-77.203 8.126-20.87 18.938-38.601 36.535-56.329 17.596-17.655 35.266-28.576 56.143-36.657 20.132-7.855 43.172-13.239 76.947-14.812 33.777-1.57 44.589-1.943 130.633-1.943s96.855 0.373 130.633 1.943c33.7 1.572 56.74 6.882 76.947 14.812 20.802 8.156 38.473 19.002 56.145 36.657 17.596 17.653 28.482 35.383 36.533 56.329 7.829 20.198 13.199 43.315 14.765 77.203 1.566 33.886 1.937 44.734 1.937 131.061s-0.371 97.175-1.937 131.063c-1.566 33.813-6.861 56.928-14.765 77.201-8.126 20.87-18.938 38.601-36.533 56.331-17.598 17.653-35.268 28.576-56.145 36.655-20.132 7.855-43.172 13.241-76.947 14.812-33.777 1.646-44.589 1.945-130.633 1.945z" />
<glyph unicode="&#xe92e;" horiz-adv-x="1045" d="M522.673 610.886c-89.847 0-162.694-73.086-162.694-163.23 0-90.142 72.847-163.23 162.694-163.23 89.845 0 162.692 73.088 162.692 163.23 0 90.144-72.847 163.23-162.692 163.23zM522.673 341.655c-58.308 0-105.655 47.428-105.655 106.001 0 58.575 47.273 106.003 105.655 106.003s105.653-47.428 105.653-106.003c0-58.573-47.347-106.001-105.653-106.001z" />
<glyph unicode="&#xe92f;" horiz-adv-x="1045" d="M691.849 579.168c21.003 0 38.027 17.082 38.027 38.153s-17.024 38.153-38.027 38.153c-21.001 0-38.027-17.082-38.027-38.153s17.026-38.153 38.027-38.153z" />
<glyph unicode="&#xe930;" horiz-adv-x="992" d="M1177.222 946.634h-1373.786v-1007.593h1373.786v1007.593z" />
<glyph unicode="&#xe931;" horiz-adv-x="992" d="M701.829 283.131l475.355-334.491v66.845l-380.389 267.646h-94.966z" />
<glyph unicode="&#xe932;" horiz-adv-x="992" d="M-196.563 869.918l406.637-287.597h95.022l-501.659 354.499v-66.902z" />
<glyph unicode="&#xe933;" horiz-adv-x="992" d="M247.955 270.182l-480.112-338.266v-5.826h86.73l488.443 344.091h-95.061z" />
<glyph unicode="&#xe934;" horiz-adv-x="992" d="M1083.229 946.634h-481.010v-338.725l481.010 338.725z" />
<glyph unicode="&#xe935;" horiz-adv-x="992" d="M389.832 946.634h-479.082l479.082-338.725v338.725z" />
<glyph unicode="&#xe936;" horiz-adv-x="992" d="M1177.23 582.322v231.157l-326.309-231.157h326.309z" />
<glyph unicode="&#xe937;" horiz-adv-x="992" d="M1177.23 54.445v228.686h-326.309l326.309-228.686z" />
<glyph unicode="&#xe938;" horiz-adv-x="992" d="M-62.078-60.957h451.9v318.394l-451.9-318.394z" />
<glyph unicode="&#xe939;" horiz-adv-x="992" d="M602.219-60.957h453.341l-453.341 318.394v-318.394z" />
<glyph unicode="&#xe93a;" horiz-adv-x="992" d="M-196.563 283.131v-238.997l337.653 238.997h-337.653z" />
<glyph unicode="&#xe93b;" horiz-adv-x="992" d="M-196.563 582.325h337.653l-337.653 239.36v-239.36z" />
<glyph unicode="&#xe93c;" horiz-adv-x="992" d="M432.336 946.634v-424.159h-628.899v-179.645h628.899v-403.789h127.389v403.789h617.498v179.645h-617.498v424.159h-127.389z" />
<glyph unicode="&#xe93d;" horiz-adv-x="992" d="M722.901 582.283l463.656 319.504v44.787h-31.299l-517.57-364.291h85.213z" />
<glyph unicode="&#xe93e;" horiz-adv-x="992" d="M342.984 950.061v-1011.023h294.672v1011.023h-294.672z" />
<glyph unicode="&#xe93f;" horiz-adv-x="992" d="M578.062-56.792v1006.865h-175.462v-1006.865h175.462z" />
<glyph unicode="&#xe940;" horiz-adv-x="992" d="M-6.17 342.064h983.53v181.944h-983.53v-181.944z" />
<glyph unicode="&#xe941;" horiz-adv-x="1514" d="M1556.465 926.985h-1575.117v-166.477h1575.117v166.477z" />
<glyph unicode="&#xe942;" horiz-adv-x="1514" d="M1556.465 760.508h-1575.117v-166.477h1575.117v166.477z" />
<glyph unicode="&#xe943;" horiz-adv-x="1514" d="M1556.465 594.033h-1575.117v-166.477h1575.117v166.477z" />
<glyph unicode="&#xe944;" horiz-adv-x="1514" d="M1556.465 438.778h-1575.117v-177.698h1575.117v177.698z" />
<glyph unicode="&#xe945;" horiz-adv-x="1514" d="M1556.465 261.078h-1575.117v-166.476h1575.117v166.476z" />
<glyph unicode="&#xe946;" horiz-adv-x="1514" d="M1556.465 94.603h-1575.117v-166.476h1575.117v166.476z" />
<glyph unicode="&#xe947;" glyph-name="language" d="M850.742 413.464c0 142.693-116.084 258.77-258.785 258.77s-258.787-116.077-258.787-258.77c0-142.693 116.087-258.77 258.787-258.77s258.785 116.077 258.785 258.77zM362.928 398.831h78.561c1.054-33.093 5.679-65.054 13.542-94.478h-64.939c-15.435 28.427-25.016 60.448-27.163 94.478zM390.092 522.577h64.939c-7.862-29.426-12.488-61.388-13.542-94.48h-78.561c2.148 34.012 11.729 66.050 27.163 94.48zM821.003 428.097h-78.561c-1.051 33.093-5.677 65.054-13.542 94.48h64.942c15.415-28.43 24.996-60.451 27.161-94.48zM793.842 304.353h-64.942c7.865 29.424 12.49 61.385 13.542 94.478h78.561c-2.145-34.009-11.726-66.050-27.161-94.478zM606.61 185.719v89.365h81.488c-19.551-47.941-48.742-81.56-81.488-89.365zM606.61 304.353v94.478h106.563c-1.191-33.814-6.459-65.893-14.868-94.478h-91.695zM713.174 428.097h-106.563v94.48h91.695c8.409-28.567 13.677-60.663 14.868-94.48zM606.61 551.844v89.368c32.746-7.825 61.937-41.445 81.488-89.368h-81.488zM577.341 641.211v-89.368h-81.488c19.553 47.943 48.745 81.563 81.488 89.368zM577.341 522.577v-94.48h-106.563c1.191 33.817 6.461 65.893 14.87 94.48h91.693zM470.76 398.831h106.561v-94.478h-91.693c-8.409 28.565-13.679 60.663-14.868 94.478zM577.341 275.084v-89.365c-32.743 7.822-61.935 41.442-81.488 89.365h81.488zM678.692 200.996c17.935 21.579 31.299 47.648 40.98 74.108h55.281c-24.703-32.586-57.896-58.38-96.261-74.108zM774.953 551.844h-55.281c-9.681 26.459-23.045 52.529-40.98 74.108 38.365-15.707 71.558-41.522 96.261-74.108zM505.239 625.931c-17.932-21.579-31.299-47.648-40.977-74.105h-55.281c24.703 32.583 57.896 58.38 96.258 74.105zM408.981 275.084h55.281c9.678-26.459 23.045-52.526 40.977-74.108-38.363 15.707-71.555 41.522-96.258 74.108zM114.158 266.43h62.95v-99.65c0-62.516 50.871-113.404 113.411-113.404h91.968c8.077 0 14.633 6.556 14.633 14.636 0 8.077-6.556 14.633-14.633 14.633h-91.968c-46.383 0-84.141 37.736-84.141 84.135v493.386c0 46.382 37.739 84.137 84.141 84.137h602.961c46.385 0 84.123-37.738 84.123-84.137v-493.386c0-46.38-37.738-84.135-84.123-84.135h-85.332c-26.187 0-51.787-10.655-70.246-29.209l-78.346-78.811c-7.2-7.24-17.153-9.248-26.597-5.347-9.446 3.904-15.085 12.333-15.085 22.538v39.317c0 28.41-23.102 51.512-51.515 51.512h-115.577c-8.080 0-14.636-6.556-14.636-14.633 0-8.080 6.556-14.636 14.636-14.636h115.577c12.273 0 22.246-9.97 22.246-22.243v-39.317c0-22.146 12.723-41.152 33.193-49.602 20.43-8.429 42.851-3.979 58.5 11.766l78.346 78.811c12.995 13.072 31.045 20.585 49.487 20.585h85.332c62.519 0 113.392 50.868 113.392 113.404v493.386c0 62.518-50.873 113.406-113.392 113.406h-113.257v57.19c0 58.615-47.691 106.322-106.329 106.322h-245.478c-8.077 0-14.633-6.556-14.633-14.634s6.556-14.634 14.633-14.634h245.478c42.481 0 77.060-34.556 77.060-77.054v-57.19h-460.438c-62.54 0-113.411-50.868-113.411-113.406v-364.467h-62.95c-42.481 0-77.058 34.556-77.058 77.052v457.991c0 42.478 34.558 77.054 77.058 77.054h245.945c8.080 0 14.636 6.556 14.636 14.634s-6.536 14.634-14.616 14.634h-245.946c-58.638 0-106.328-47.688-106.328-106.322v-458.011c0-58.613 47.691-106.301 106.328-106.301z" />
<glyph unicode="&#xe948;" glyph-name="light-mode-2" d="M824.532 408.161c-24.264-153.066-157.346-270.094-317.19-270.094-177.327 0-321.116 143.79-321.116 321.116 0 159.844 117.027 292.57 270.093 317.189 16.769 2.498 33.54 3.925 51.023 3.925 177.327 0 321.114-143.787 321.114-321.114 0-17.483-1.426-34.254-3.924-51.023zM365.693 664.696c-65.291-44.956-108.107-120.595-108.107-205.512 0-137.723 112.033-249.756 249.756-249.756 85.274 0 160.556 42.813 205.512 107.75-30.325-12.131-63.865-18.552-98.474-18.552-147.713 0-267.596 119.883-267.596 267.596 0 34.966 6.778 68.146 18.909 98.474zM471.662 923.016c0 19.624 16.057 35.68 35.68 35.68s35.678-16.056 35.678-35.68v-71.359c0-19.624-16.054-35.679-35.678-35.679s-35.68 16.056-35.68 35.679v71.359zM810.259 812.409c13.916 13.915 36.394 13.915 50.308 0 13.916-13.915 13.916-36.393 0-50.308l-50.308-50.308c-13.914-13.915-36.392-13.915-50.306 0-13.916 13.915-13.916 36.393 0 50.308l50.306 50.308zM971.174 494.862c19.623 0 35.68-16.054 35.68-35.678 0-19.626-16.057-35.68-35.68-35.68h-71.358c-19.626 0-35.68 16.054-35.68 35.68 0 19.623 16.054 35.678 35.68 35.678h71.358zM860.567 156.265c13.916-13.916 13.916-36.394 0-50.308-13.914-13.914-36.392-13.914-50.308 0l-50.306 50.308c-13.916 13.914-13.916 36.392 0 50.308 13.914 13.914 36.392 13.914 50.306 0l50.308-50.308zM543.020-4.65c0-19.623-16.054-35.678-35.678-35.678s-35.68 16.054-35.68 35.678v71.36c0 19.623 16.057 35.678 35.68 35.678s35.678-16.054 35.678-35.678v-71.36zM204.423 105.957c-13.915-13.914-36.393-13.914-50.308 0s-13.915 36.392 0 50.308l50.308 50.308c13.915 13.914 36.393 13.914 50.308 0 13.914-13.916 13.914-36.394 0-50.308l-50.308-50.308zM43.509 423.504c-19.624 0-35.679 16.054-35.679 35.68 0 19.623 16.056 35.678 35.679 35.678h71.359c19.624 0 35.679-16.054 35.679-35.678 0-19.626-16.056-35.68-35.679-35.68h-71.359zM154.115 761.745c-13.915 13.915-13.915 36.393 0 50.308s36.393 13.915 50.308 0l50.308-50.308c13.914-13.915 13.914-36.393 0-50.308-13.915-13.915-36.393-13.915-50.308 0l-50.308 50.308z" />
<glyph unicode="&#xe949;" horiz-adv-x="2048" d="M489.020 931.505h1049.055c270.080 0 489.020-219.57 489.020-490.426s-218.94-490.427-489.020-490.427h-1049.055c-270.080 0-489.020 219.57-489.020 490.427s218.94 490.426 489.020 490.426z" />
<glyph unicode="&#xe94a;" horiz-adv-x="2048" d="M1951 441.269c0-229.183-184.871-414.976-412.925-414.976s-412.928 185.793-412.928 414.976c0 229.185 184.874 414.976 412.928 414.976s412.925-185.791 412.925-414.976z" />
<glyph unicode="&#xe94b;" horiz-adv-x="1047" d="M523.378-64c289.052 0 523.378 229.23 523.378 512s-234.325 512-523.378 512c-289.052 0-523.378-229.23-523.378-512s234.325-512 523.378-512z" />
<glyph unicode="&#xe94c;" horiz-adv-x="1047" d="M878.344 474.472c0 156.103-160.038 283.156-356.671 283.156-196.635 0-356.673-127.053-356.673-283.156 0-139.947 126.851-257.213 298.287-279.361 11.63-2.428 27.448-7.509 31.403-17.219 3.566-8.8 2.326-22.603 1.163-31.555 0 0-4.187-24.651-5.118-29.885-1.552-8.8-7.134-34.513 30.859-18.812 38.072 15.701 205.398 118.329 280.221 202.602 51.796 55.446 76.529 111.73 76.529 174.23z" />
<glyph unicode="&#xe94d;" horiz-adv-x="1047" d="M449.179 549.945h-25.045c-3.8 0-6.979-3.033-6.979-6.752v-152.082c0-3.716 3.102-6.752 6.979-6.752h25.045c3.8 0 6.979 3.036 6.979 6.752v152.007c0 3.793-3.102 6.827-6.979 6.827z" />
<glyph unicode="&#xe94e;" horiz-adv-x="1047" d="M621.395 549.945h-25.045c-3.875 0-6.977-3.033-6.977-6.752v-90.34l-71.257 94.058c-0.157 0.228-0.312 0.455-0.544 0.683 0 0 0 0-0.077 0.075-0.155 0.152-0.309 0.303-0.387 0.455-0.077 0.075-0.077 0.075-0.157 0.152-0.155 0.075-0.232 0.228-0.387 0.303-0.077 0.075-0.155 0.075-0.155 0.152-0.155 0.075-0.232 0.15-0.387 0.228-0.077 0.075-0.157 0.075-0.234 0.15-0.155 0.077-0.232 0.152-0.387 0.228-0.077 0-0.155 0.077-0.232 0.077-0.155 0.075-0.232 0.15-0.389 0.15-0.077 0-0.155 0.077-0.232 0.077-0.155 0.075-0.232 0.075-0.387 0.15-0.077 0-0.155 0.077-0.232 0.077-0.157 0-0.234 0.075-0.389 0.075-0.077 0-0.232 0-0.309 0.075-0.155 0-0.232 0-0.387 0.077-0.157 0-0.234 0-0.389 0-0.077 0-0.155 0-0.232 0h-25.045c-3.8 0-6.979-3.036-6.979-6.752v-152.235c0-3.716 3.102-6.752 6.979-6.752h25.045c3.878 0 6.979 3.036 6.979 6.752v90.264l71.334-94.208c0.464-0.683 1.085-1.215 1.782-1.67 0 0 0.080 0 0.080-0.075 0.155-0.075 0.309-0.152 0.464-0.228 0.077-0.075 0.155-0.075 0.232-0.075 0.077-0.077 0.232-0.077 0.312-0.152 0.077-0.075 0.232-0.075 0.309-0.152 0.077 0 0.155-0.075 0.232-0.075 0.155-0.075 0.309-0.075 0.466-0.152h0.077c0.542-0.15 1.163-0.228 1.782-0.228h25.045c3.878 0 6.979 3.036 6.979 6.752v152.007c0.077 3.793-3.024 6.827-6.902 6.827z" />
<glyph unicode="&#xe94f;" horiz-adv-x="1047" d="M388.936 422.361h-68v120.757c0 3.716-3.102 6.827-6.979 6.827h-25.045c-3.798 0-6.979-3.033-6.979-6.827v-152.007c0-1.82 0.776-3.488 1.939-4.704l0.155-0.15c1.242-1.138 2.947-1.898 4.808-1.898h99.947c3.798 0 6.899 3.036 6.899 6.827v24.501c0.155 3.641-2.947 6.674-6.745 6.674z" />
<glyph unicode="&#xe950;" horiz-adv-x="1047" d="M759.558 511.868c3.8 0 6.902 3.033 6.902 6.827v24.499c0 3.793-3.102 6.827-6.902 6.827h-99.945c-1.861 0-3.568-0.758-4.808-1.896l-0.077-0.075c-0.077-0.077-0.077-0.077-0.077-0.152-1.163-1.213-1.939-2.883-1.939-4.704v-152.082c0-1.82 0.776-3.488 1.939-4.704l0.155-0.15c1.24-1.138 2.947-1.898 4.808-1.898h99.945c3.8 0 6.902 3.036 6.902 6.827v24.501c0 3.716-3.102 6.827-6.902 6.827h-68v25.714h68c3.8 0 6.902 3.033 6.902 6.827v24.501c0 3.791-3.102 6.827-6.902 6.827h-68v25.714h68v-0.228z" />
<glyph unicode="&#xe951;" glyph-name="live-casino" horiz-adv-x="705" d="M173.422 361.524c50.374-43.748 114.654-67.419 182.643-67.419 65.516 0 127.632 22.174 177.080 62.924 28.432-74.609 156.064-69.216 156.064-69.216v329.604c0 180.385-151.121 326.909-337.161 326.909h-3.399c-156.993 0-185.424-98.882-185.424-98.882-143.703-47.943-148.339-212.446-148.339-212.446v-344.586c98.274-7.492 140.922 40.75 158.537 73.112zM356.065 349.239c-61.19 0-116.508 24.569-156.064 64.123-37.704 37.755-61.191 89.593-61.191 146.226 0 19.176 2.781 37.754 7.726 55.432 30.905 17.68 75.714 49.741 95.494 95.287 0 0 34.302-38.655 100.129-75.511 13.906-7.791 29.050-15.281 45.738-22.473 49.755-21.575 111.562-38.954 185.423-42.849 0-3.297 0.309-6.893 0.309-10.188 0-56.632-23.178-108.17-60.881-146.226-40.174-39.253-95.492-63.822-156.682-63.822zM625.837 121.816l-114.344 38.355c-8.963 2.996-18.543 2.996-27.196 0.299-12.053-3.596-21.014-13.184-25.033-24.571l-18.232-53.335c-1.546-4.494-4.017-8.989-7.108-12.585-36.468-41.351-102.91-41.351-139.068 0-3.401 3.896-5.872 8.091-7.418 12.884l-17.923 53.036c-4.019 12.286-13.908 21.875-26.888 25.17-8.034 2.098-16.997 2.098-25.341-0.898l-114.344-38.355c-16.997-5.692-28.123-21.274-28.123-38.653 0-66.52 28.432-98.881 55.936-122.853 6.49-5.692 15.452-7.791 23.796-7.791h399.279c6.799 0 13.288 2.698 19.778 5.095 37.703 13.184 80.042 56.632 80.042 125.249 0.618 17.979-10.817 33.262-27.814 38.954zM364.72 11.252c0-65.022-100.746-45.246-167.808-45.246s-121.453 52.738-121.453 117.758c0 65.022 53.773 111.467 120.835 111.467 67.060 0 168.426-32.661 168.426-183.979zM364.41 19.335c0-65.022 100.746-45.246 167.808-45.246s121.453 52.736 121.453 117.758c0 65.022-54.082 111.767-121.144 111.767s-168.117-32.662-168.117-184.28z" />
<glyph unicode="&#xe952;" glyph-name="login" horiz-adv-x="1133" d="M985.016 384.251l-404.28 352.393c-10.53 9.030-26.323 9.030-36.576 0l-404.556-352.393c-3.048-2.462-4.71-6.292-4.71-10.122v-414.772c0-7.66 6.096-13.68 13.855-13.68h284.297c7.758 0 13.855 6.020 13.855 13.68v264.841c0 30.097 24.94 54.719 55.42 54.719h119.98c30.48 0 55.42-24.622 55.42-54.719v-264.841c0-7.66 6.096-13.68 13.855-13.68h284.297c7.758 0 13.855 6.020 13.855 13.68v414.5c0 3.83-1.662 7.66-4.71 10.395zM1096.395 521.061l-460.807 399.725c-41.84 36.388-104.463 36.388-146.303 0l-461.084-399.725c-22.722-19.7-23.83-54.174-2.494-75.515 19.674-19.423 50.985-20.245 71.767-2.187l428.108 372.365c21.060 18.331 52.372 18.331 73.153 0l428.11-372.365c20.781-18.057 52.093-16.964 71.767 2.187 21.613 21.068 20.504 55.815-2.218 75.515z" />
<glyph unicode="&#xe953;" glyph-name="lucky-draw" horiz-adv-x="998" d="M114.59 593.388c5.424-9.992 19.246-10.527 24.845-0.714 14.522 25.157 41.816 63.516 84.508 87.959 9.448 5.35 9.273 19.267 0 24.977-24.495 14.63-61.587 42.284-85.033 84.925-5.249 9.634-18.896 9.634-24.32 0-13.472-23.55-39.192-58.341-84.857-85.282-9.623-5.709-9.798-19.625 0-25.334 23.97-13.916 60.013-41.037 85.207-86.531h-0.35zM84.146 575.903c-5.599 10.171-11.898 19.090-18.371 27.118v-66.903h74.71v15.7c-4.199-1.249-8.573-1.784-13.122-1.784-17.846 0-34.468 9.992-43.216 25.869zM126.662 833.353c4.899 0 9.623-0.892 13.997-2.319 1.050 21.588 14.172 38.537 30.444 38.537h545.889c0 0 1.398 1.249 2.099 1.606 26.068 15.7 41.116 35.147 48.988 48.885 8.399 14.451 23.27 23.194 39.544 23.194 16.271 0 32.018-9.099 40.241-23.907 13.123-23.194 33.769-38.894 48.814-47.993 14.172-8.564 22.572-23.729 22.395-40.5 0-16.771-9.096-32.471-23.444-40.857-23.094-13.559-38.492-34.612-47.764-50.134v-203.749h74.708v324.891c0 45.852-32.717 82.962-73.308 82.962h-710.18c-40.417 0-73.31-37.11-73.31-82.962v-79.215c7.873 9.634 13.997 18.733 18.371 26.584 8.748 15.344 25.020 24.978 42.516 24.978zM878.638 821.043c7.524 4.46 8.049 15.165 0.525 19.625-17.846 10.883-44.265 30.687-61.412 61.017-4.372 7.85-15.045 8.207-19.42 0.357-9.974-17.306-28.869-42.105-61.412-61.552-7.35-4.461-7.698-15.165 0-19.625 17.495-10.348 43.566-30.152 62.111-62.98 4.201-7.672 14.874-8.029 19.246-0.535 10.673 18.376 30.444 45.674 60.713 63.515h-0.174l-0.177 0.178zM945.661 500.434h-319.834v-74.22h179.162c0-45.317 36.042-82.071 80.484-82.071l-2.975-41.569h-268.045c-5.773-13.202-13.471-25.334-22.92-35.681h288.34l-6.298-87.78h-758.295l-6.299 87.78h288.342c-9.449 10.348-17.147 22.479-22.922 35.681h-268.044l-2.974 41.569c44.441 0 80.484 36.754 80.484 82.071h179.163v74.22h-319.834c-20.646 0-36.917-18.196-35.168-39.25l45.841-483.323c1.575-18.376 16.797-32.292 34.993-32.292h810.96c18.020 0 33.242 13.916 34.993 32.292l45.665 483.323c1.925 21.053-14.172 39.25-34.993 39.25h0.174zM787.494 19.612h-586.13c0 45.494-36.042 82.248-80.483 82.248l-2.974 41.569h753.047l-2.975-41.569c-44.442 0-80.484-36.754-80.484-82.248zM398.026 356.989c0-54.239 43.215-98.307 96.404-98.307s96.404 44.068 96.404 98.307v142.909h-192.986v-142.909h0.177zM495.13 451.192c24.494 0 44.442-20.339 44.442-45.317 0-18.734-11.197-34.79-26.944-41.748v-26.941c0-9.812-7.875-17.841-17.498-17.841s-17.495 8.028-17.495 17.841v26.941c-15.923 6.958-26.947 23.014-26.947 41.748 0 24.978 19.948 45.317 44.442 45.317zM697.897 649.231c3.85 5.709 4.198 13.381 0.701 19.269l-62.812 106.69c-3.151 5.352-8.924 8.742-15.048 8.742h-251.423c-6.124 0-11.899-3.212-15.048-8.742l-62.812-106.69c-3.5-6.067-3.325-13.56 0.699-19.269l78.211-115.256h42.516l-73.137 107.763h56.863l31.145-107.763h36.393l-31.145 107.763h123.876l-31.145-107.763h36.393l31.145 107.763h56.863l-73.134-107.763h42.514l78.211 115.256h0.174zM398.185 677.42h-60.713l41.815 71.009h48.466l-29.394-71.009h-0.174zM436.152 677.42l29.394 71.009h58.788l29.568-71.009h-117.75zM591.869 677.42l-29.568 71.009h48.289l41.815-71.009h-60.536z" />
<glyph unicode="&#xe954;" glyph-name="message-2" d="M70.268 576.050v-357.151c0-33.12 13.157-64.882 36.576-88.301s55.182-36.577 88.302-36.577h624.391c33.12 0 64.882 13.157 88.301 36.577s36.577 55.181 36.577 88.301v357.151l-371.637-228.652c-19.681-12.106-42.331-18.517-65.436-18.517s-45.758 6.411-65.436 18.517l-371.638 228.652zM944.415 649.396v6.576c0 33.12-13.157 64.884-36.577 88.303s-55.181 36.576-88.301 36.576h-624.391c-33.12 0-64.883-13.157-88.302-36.576s-36.576-55.183-36.576-88.303v-6.576l404.356-248.839c9.838-6.054 21.164-9.258 32.718-9.258 11.551 0 22.878 3.204 32.718 9.258l404.355 248.839z" />
<glyph unicode="&#xe955;" glyph-name="message" d="M64 590.082v-366.080c0-33.947 13.486-66.502 37.49-90.511 24.005-24.001 56.562-37.486 90.51-37.486h640c33.95 0 66.505 13.485 90.506 37.486 24.009 24.009 37.494 56.564 37.494 90.511v366.080l-380.928-234.368c-20.171-12.41-43.389-18.98-67.072-18.98s-46.901 6.57-67.072 18.98l-380.928 234.368zM960 665.259v6.741c0 33.948-13.485 66.505-37.494 90.51-24.001 24.005-56.556 37.49-90.506 37.49h-640c-33.948 0-66.505-13.485-90.51-37.49s-37.49-56.562-37.49-90.51v-6.741l414.464-255.062c10.086-6.205 21.695-9.49 33.536-9.49s23.45 3.285 33.536 9.49l414.464 255.062z" />
<glyph unicode="&#xe956;" glyph-name="net-banking" d="M839.457 825.896c-1.162 1.715-2.547 3.209-4.041 4.481-14.229 12.116-29.563 23.678-45.508 34.355-34.213 23.567-71.25 42.709-110.115 57.037-66.822 24.563-137.407 34.134-209.821 28.325-55.306-3.873-108.897-16.763-159.331-38.172-46.503-19.75-90.572-47.19-130.986-81.545-0.608-0.498-1.162-0.996-1.716-1.549-21.148-18.256-40.691-38.283-58.13-59.582-133.477-162.868-150.529-401.361-41.521-579.886 26.408-43.261 59.403-82.209 97.991-115.789 0.995-1.326 2.159-2.489 3.376-3.54 54.809-46.58 117.81-80.438 187.345-100.686 4.096-1.217 8.249-2.379 13.065-3.651 42.518-11.286 86.476-16.983 130.211-16.983 32.83 0 65.603 3.208 97.602 9.626 32.221 6.473 64.165 16.376 95.388 29.652l1.108 0.443c46.448 19.75 90.517 47.19 130.986 81.599 1.771 1.494 3.32 3.154 4.65 4.979 87.915 78.116 145.933 183.116 163.427 295.918 4.098 26.444 6.256 53.11 6.312 79.333-0.499 142.897-62.558 279.708-170.293 375.636zM535.686 231.129v190.971h138.903c-1.882-76.787-10.74-145.828-26.961-210.279-36.538 10.567-74.129 17.040-111.942 19.308zM770.975 90.611c-0.554-0.443-1.163-0.831-1.716-1.272-42.298-30.428-90.794-53.552-141.727-67.77 20.65 28.878 35.1 60.91 44.898 84.809 4.428 10.732 8.637 22.018 12.677 33.636 30.007-13 58.794-29.597 85.867-49.402zM632.293 158.878c-13.398-41.049-35.266-94.767-74.24-131.003-7.197-6.693-14.67-11.949-22.367-15.711v163.145c32.83-1.937 65.272-7.413 96.607-16.431zM730.782 478.307c-1.937 82.597-11.957 159.272-29.674 228.149 1.108 0.441 2.214 0.94 3.322 1.383 38.531 16.374 75.459 38.116 110.004 64.616 70.807-67.549 118.141-156.563 133.697-251.661 2.214-13.554 3.71-27.551 4.595-42.488h-221.944zM535.686 725.266v163.365c45.895-24.286 72.635-83.26 88.801-125.581 2.547-6.693 5.038-13.665 7.529-20.856-31.445-9.129-63.721-14.771-96.33-16.928zM674.534 478.307h-138.848v190.696c38.145 1.991 75.791 8.298 112.274 18.81 12.788-50.841 21.093-107.214 24.858-167.847 0.831-13.389 1.383-27.384 1.716-41.658zM684.997 761.059c-11.902 35.738-29.73 80.549-58.13 118.665 51.709-14.494 99.874-38.062 143.498-70.259-26.463-19.142-55.084-35.351-85.368-48.406zM952.562 422.1c-7.586-110.699-57.3-216.917-137.797-294.479-34.821 26.555-72.966 48.517-113.713 65.39 13.896 53.607 22.921 112.138 27.46 178.581 1.106 16.154 1.882 33.082 2.27 50.508h221.78zM479.44 175.087v-163.145c-3.931 1.936-7.861 4.261-11.682 7.025-43.626 31.257-68.15 90.176-84.592 139.246 31.39 9.073 63.666 14.717 96.274 16.874zM329.963 139.183c15.833-47.467 34.934-86.248 57.908-117.449-51.432 14.44-100.26 37.896-143.331 68.987 26.463 19.196 55.084 35.461 85.423 48.462zM63.119 478.307c4.429 72.14 25.965 141.901 62.614 202.478 20.428 33.802 45.508 64.671 74.517 92.001 34.823-26.609 73.077-48.573 113.879-65.501-16.997-65.281-26.906-138.802-29.563-218.632-0.111-3.485-0.222-6.916-0.277-10.401l-221.17 0.055zM479.44 422.1v-190.749c-38.089-1.993-75.736-8.244-112.163-18.754-15.39 61.187-24.304 129.177-26.574 202.312-0.055 2.379-0.111 4.757-0.166 7.136l138.903 0.055zM244.595 809.465c43.293 31.423 91.348 54.713 143.11 69.374-27.238-37.342-44.51-81.102-55.86-113.355-0.609-1.714-1.217-3.43-1.771-5.145-29.896 12.946-58.573 29.432-85.479 49.127zM479.44 725.044c-32.941 1.936-65.439 7.468-96.939 16.54 16.387 50.178 36.649 88.737 61.673 117.505 8.36 9.571 20.483 21.299 35.266 28.823v-162.868zM479.44 669.224v-190.973h-138.958c1.66 72.251 10.242 140.795 25.521 203.917 0.499 2.103 1.053 4.205 1.551 6.362 36.483-10.566 74.018-17.039 111.886-19.307zM314.019 193.952c-1.108-0.443-2.214-0.942-3.378-1.383-38.697-16.431-75.845-38.338-110.557-65.059-13.010 12.281-25.357 25.338-36.65 38.947-58.96 70.868-94.336 161.208-100.26 255.587h221.004c1.771-80.659 11.793-157.39 29.84-228.092z" />
<glyph unicode="&#xe957;" glyph-name="privacy-policy" d="M486.12-43.767c-201.873 169.712-199.735 438.899-189.39 546.931 2.852 28.879 14.266 54.552 31.387 75.943h-177.621c-47.080 0-47.080 71.308 0 71.308h178.333c19.618 0 35.668-16.044 35.668-35.655 0-1.426-0.714-2.852-0.714-4.278 16.764 10.34 35.311 17.828 55.641 20.68 98.084 13.906 159.075 47.421 186.538 65.961 23.54 16.044 51.003 24.601 79.535 24.601v106.962c0 59.185-47.793 106.962-106.998 106.962h-463.668c-59.207 0-107-47.776-107-106.962v-784.745c0-59.185 47.793-106.961 107-106.961h397.328c-8.562 6.416-17.835 12.121-26.037 19.254zM150.496 828.328h356.666c47.082 0 47.082-71.308 0-71.308h-356.666c-47.080 0-47.080 71.308 0 71.308zM150.496 471.789h107c47.079 0 47.079-71.308 0-71.308h-107c-47.080 0-47.080 71.308 0 71.308zM150.496 293.518h107c47.079 0 47.079-71.308 0-71.308h-107c-47.080 0-47.080 71.308 0 71.308zM293.164 43.94h-142.668c-47.080 0-47.080 71.308 0 71.308h142.668c47.079 0 47.079-71.308 0-71.308zM1003.28 496.033c-3.209 33.16-28.532 59.544-61.702 64.177-112.707 16.044-184.040 55.264-216.496 77.369-24.254 16.401-55.284 16.401-79.18 0-32.813-22.106-104.148-61.325-216.499-77.369-33.17-4.633-58.493-31.017-61.702-64.177-21.399-226.044 52.429-449.239 259.654-546.217 37.094-17.47 79.18-17.47 116.274 0 207.223 97.69 280.696 320.884 259.651 546.217zM817.814 339.513l-142.666-142.616c-13.911-13.906-36.379-13.906-50.291 0l-71.333 71.308c-33.527 33.515 17.121 83.786 50.291 50.271l46.010-45.993 117.343 117.3c33.527 33.515 83.816-17.113 50.288-50.271h0.357z" />
<glyph unicode="&#xe958;" glyph-name="promotion" horiz-adv-x="984" d="M653.011 283.646c25.229 0 45.678 21.456 45.678 47.925 0 26.467-20.45 47.923-45.678 47.923s-45.678-21.456-45.678-47.923c0-26.469 20.452-47.925 45.678-47.925zM332.501 502.055c25.229 0 45.678 21.456 45.678 47.925 0 26.467-20.45 47.923-45.678 47.923-25.227 0-45.676-21.456-45.676-47.923 0-26.469 20.45-47.925 45.676-47.925zM905.616 324.614c9.951 39.348 65.582 73.608 65.582 116.166 0 42.56-55.374 76.82-65.582 116.168-10.463 40.683 21.181 99.302 1.53 134.901-19.904 36.135-84.211 36.671-112.281 66.114-27.815 29.174-28.582 96.893-63.030 117.771-33.941 20.61-89.825-12.312-128.614-1.606-37.256 10.439-69.919 68.522-110.494 68.522s-73.238-58.083-110.751-68.789c-38.533-10.707-94.674 22.216-128.612 1.606-34.196-20.878-34.961-88.329-62.776-117.772-28.070-29.174-92.377-29.977-112.281-65.845-19.649-35.599 11.738-94.218 1.531-134.901-10.207-39.348-65.583-73.608-65.583-116.168 0-42.558 55.375-76.818 65.583-116.166 10.462-40.685-21.18-99.302-1.531-134.901 19.904-36.135 84.211-36.671 112.281-66.114 27.816-29.174 28.581-96.892 63.031-117.772 33.939-20.609 89.825 12.314 128.612 1.606 37.513-10.439 70.176-68.789 110.751-68.789s73.238 58.083 110.751 68.789c38.788 10.975 94.672-22.215 128.612-1.606 34.451 20.88 34.961 88.329 63.030 117.772 27.815 29.176 92.377 29.979 112.283 66.114 19.139 35.599-12.25 94.485-2.042 134.901zM230.906 549.986c0 58.619 45.423 106.53 101.565 106.53 56.139 0 101.563-47.644 101.563-106.53 0-58.617-45.423-106.528-101.563-106.528-56.141 0-101.565 47.911-101.565 106.528zM418.724 236.821c-2.297-4.283-6.381-6.692-10.975-6.692h-44.146c-9.696 0-15.822 10.975-10.973 20.074l214.1 394.537c2.297 4.283 6.379 6.692 10.973 6.692h44.146c9.698 0 15.822-10.975 10.973-20.076l-214.098-394.535zM652.983 225.043c-55.886 0-101.565 47.644-101.565 106.53s45.423 106.263 101.565 106.263c55.884 0 101.563-47.644 101.563-106.263 0-58.617-45.678-106.53-101.563-106.53z" />
<glyph unicode="&#xe959;" glyph-name="qr-code" d="M386.067 576.759h-237.919v237.919h237.919v-237.919zM181.346 609.962h171.517v171.518h-171.517v-171.518zM314.132 742.75h-94.057v-94.063h94.057v94.063zM386.067 78.799h-237.919v237.911h237.919v-237.911zM181.346 111.996h171.517v171.518h-171.517v-171.518zM314.132 244.783h-94.057v-94.063h94.057v94.063zM884.027 576.759h-237.911v237.919h237.919v-237.919h-0.008zM679.312 609.962h171.518v171.518h-171.518v-171.518zM813.604 744.254h-97.074v-97.072h97.074v97.072zM460.699 798.076h-36.973v-36.973h36.973v36.973zM497.673 761.103h-36.973v-36.973h36.973v36.973zM534.646 761.103h-36.973v-36.973h36.973v36.973zM497.673 724.13h-36.973v-36.973h36.973v36.973zM497.673 650.177h-36.973v-36.973h36.973v36.973zM571.627 650.177h-36.973v-36.973h36.973v36.973zM571.627 687.15h-36.973v-36.973h36.973v36.973zM608.599 724.13h-36.973v-36.973h36.973v36.973zM571.627 798.076h-36.973v-36.973h36.973v36.973zM608.599 761.103h-36.973v-36.973h36.973v36.973zM608.599 650.177h-36.973v-36.973h36.973v36.973zM608.599 613.204h-36.973v-36.973h36.973v36.973zM423.726 539.251h-36.973v-36.973h36.973v36.973zM386.747 539.251h-36.973v-36.973h36.973v36.973zM349.775 539.251h-36.973v-36.973h36.973v36.973zM275.821 539.251h-36.973v-36.973h36.973v36.973zM201.867 539.251h-36.973v-36.973h36.973v36.973zM275.821 428.323h-36.973v-36.973h36.973v36.973zM275.821 391.351h-36.973v-36.973h36.973v36.973zM312.794 391.351h-36.973v-36.973h36.973v36.973zM386.747 391.351h-36.973v-36.973h36.973v36.973zM386.747 428.323h-36.973v-36.973h36.973v36.973zM386.747 465.298h-36.973v-36.974h36.973v36.974zM423.726 465.298h-36.973v-36.974h36.973v36.974zM460.699 391.351h-36.973v-36.973h36.973v36.973zM460.699 428.323h-36.973v-36.973h36.973v36.973zM497.673 428.323h-36.973v-36.973h36.973v36.973zM534.646 428.323h-36.973v-36.973h36.973v36.973zM571.627 428.323h-36.973v-36.973h36.973v36.973zM608.599 391.351h-36.973v-36.973h36.973v36.973zM608.599 354.372h-36.973v-36.974h36.973v36.974zM645.574 317.397h-36.974v-36.973h36.974v36.973zM423.726 391.351h-36.973v-36.973h36.973v36.973zM238.847 428.323h-36.973v-36.973h36.973v36.973zM312.794 502.278h-36.973v-36.973h36.973v36.973zM312.794 465.298h-36.973v-36.974h36.973v36.974zM275.821 465.298h-36.973v-36.974h36.973v36.974zM238.847 502.278h-36.973v-36.973h36.973v36.973zM201.867 465.298h-36.973v-36.974h36.973v36.974zM460.699 687.15h-36.973v-36.973h36.973v36.973zM460.699 613.204h-36.973v-36.973h36.973v36.973zM460.699 576.224h-36.973v-36.974h36.973v36.974zM460.699 502.278h-36.973v-36.973h36.973v36.973zM497.673 502.278h-36.973v-36.973h36.973v36.973zM534.646 502.278h-36.973v-36.973h36.973v36.973zM571.627 502.278h-36.973v-36.973h36.973v36.973zM534.646 539.251h-36.973v-36.973h36.973v36.973zM608.599 539.251h-36.973v-36.973h36.973v36.973zM645.574 539.251h-36.974v-36.973h36.974v36.973zM682.551 539.251h-36.973v-36.973h36.973v36.973zM719.525 539.251h-36.974v-36.973h36.974v36.973zM756.498 539.251h-36.973v-36.973h36.973v36.973zM793.479 539.251h-36.973v-36.973h36.973v36.973zM793.479 502.278h-36.973v-36.973h36.973v36.973zM682.551 465.298h-36.973v-36.974h36.973v36.974zM645.574 502.278h-36.974v-36.973h36.974v36.973zM608.599 465.298h-36.973v-36.974h36.973v36.974zM756.498 428.323h-36.973v-36.973h36.973v36.973zM793.479 391.351h-36.973v-36.973h36.973v36.973zM830.451 391.351h-36.973v-36.973h36.973v36.973zM830.451 354.372h-36.973v-36.974h36.973v36.974zM830.451 317.397h-36.973v-36.973h36.973v36.973zM756.498 280.425h-36.973v-36.973h36.973v36.973zM756.498 169.209h-36.973v-36.973h36.973v36.973zM867.424 280.425h-36.973v-36.973h36.973v36.973zM867.424 132.52h-36.973v-36.974h36.973v36.974zM719.525 132.52h-36.974v-36.974h36.974v36.974zM682.551 132.52h-36.973v-36.974h36.973v36.974zM645.574 132.52h-36.974v-36.974h36.974v36.974zM645.574 169.499h-36.974v-36.973h36.974v36.973zM608.599 169.499h-36.973v-36.973h36.973v36.973zM645.574 206.471h-36.974v-36.973h36.974v36.973zM645.574 243.446h-36.974v-36.973h36.974v36.973zM608.599 280.425h-36.973v-36.973h36.973v36.973zM571.627 280.425h-36.973v-36.973h36.973v36.973zM534.646 280.425h-36.973v-36.973h36.973v36.973zM571.627 243.446h-36.973v-36.973h36.973v36.973zM534.646 243.446h-36.973v-36.973h36.973v36.973zM460.699 169.499h-36.973v-36.973h36.973v36.973zM460.699 317.397h-36.973v-36.973h36.973v36.973zM497.673 243.446h-36.973v-36.973h36.973v36.973zM534.646 206.471h-36.973v-36.973h36.973v36.973zM497.673 206.471h-36.973v-36.973h36.973v36.973zM534.646 169.499h-36.973v-36.973h36.973v36.973zM497.673 132.52h-36.973v-36.974h36.973v36.974zM571.627 317.397h-36.973v-36.973h36.973v36.973zM497.673 317.397h-36.973v-36.973h36.973v36.973zM534.646 354.372h-36.973v-36.974h36.973v36.974zM534.646 391.351h-36.973v-36.973h36.973v36.973zM497.673 354.372h-36.973v-36.974h36.973v36.974zM460.699 280.425h-36.973v-36.973h36.973v36.973zM608.599 206.471h-36.973v-36.973h36.973v36.973zM571.627 132.52h-36.973v-36.974h36.973v36.974zM682.551 280.425h-36.973v-36.973h36.973v36.973zM719.525 243.446h-36.974v-36.973h36.974v36.973zM830.451 243.446h-36.973v-36.973h36.973v36.973zM830.451 206.471h-36.973v-36.973h36.973v36.973zM793.479 206.471h-36.973v-36.973h36.973v36.973zM867.424 206.471h-36.973v-36.973h36.973v36.973zM719.525 206.471h-36.974v-36.973h36.974v36.973zM830.451 169.499h-36.973v-36.973h36.973v36.973zM830.451 132.52h-36.973v-36.974h36.973v36.974zM756.498 354.372h-36.973v-36.974h36.973v36.974zM719.525 428.323h-36.974v-36.973h36.974v36.973zM719.525 391.351h-36.974v-36.973h36.974v36.973zM682.551 317.397h-36.973v-36.973h36.973v36.973zM682.551 391.351h-36.973v-36.973h36.973v36.973zM682.551 354.372h-36.973v-36.974h36.973v36.974zM756.498 465.298h-36.973v-36.974h36.973v36.974zM756.498 317.397h-36.973v-36.973h36.973v36.973zM793.479 317.397h-36.973v-36.973h36.973v36.973zM830.451 502.278h-36.973v-36.973h36.973v36.973zM830.451 465.298h-36.973v-36.974h36.973v36.974zM867.424 539.251h-36.973v-36.973h36.973v36.973zM830.451 428.323h-36.973v-36.973h36.973v36.973zM534.646 576.224h-36.973v-36.974h36.973v36.974zM571.627 576.224h-36.973v-36.974h36.973v36.974zM969.944 916.388c-26.824 23.134-61.199 35.873-96.784 35.873h-107.518c-10.583 0-19.199-8.609-19.199-19.199 0-10.583 8.608-19.199 19.199-19.199h107.136c60.895 0 110.441-49.546 110.441-110.441v-107.135c0-10.583 8.609-19.199 19.199-19.199 10.583 0 19.199 8.608 19.199 19.199v105.992c-0.008 44.207-18.837 85.795-51.673 114.109zM266.531 952.262h-107.518c-39.65 0-76.934-15.445-104.973-43.476-28.032-28.039-43.476-65.323-43.476-104.973v-107.519c0-10.583 8.609-19.199 19.199-19.199 10.583 0 19.199 8.609 19.199 19.199v107.136c0 60.896 49.546 110.442 110.442 110.442h107.136c10.582 0 19.198 8.609 19.198 19.199-0.006 10.583-8.616 19.192-19.206 19.192zM266.533-20.393h-107.136c-60.896 0-110.442 49.546-110.442 110.441v107.136c0 10.583-8.608 19.199-19.199 19.199-10.583 0-19.199-8.608-19.199-19.199v-107.518c0-39.649 15.445-76.934 43.476-104.973 28.039-28.039 65.316-43.476 104.973-43.476h107.518c10.583 0 19.199 8.608 19.199 19.199 0.008 10.576-8.602 19.191-19.191 19.191zM1002.417 216.382c-10.583 0-19.199-8.608-19.199-19.199v-107.136c0-60.895-49.546-110.441-110.441-110.441h-107.136c-10.583 0-19.199-8.608-19.199-19.199 0-10.583 8.608-19.199 19.199-19.199h107.518c39.649 0 76.934 15.445 104.973 43.476 28.039 28.040 43.476 65.317 43.476 104.973v107.52c0 10.59-8.608 19.206-19.191 19.206z" />
<glyph unicode="&#xe95a;" glyph-name="refer" horiz-adv-x="894" d="M857.838 146.927l-126.259 26.769c-77.347-86.387-190.488-140.64-316.658-140.64-126.633 0-240.17 54.73-317.757 141.461h-81.345c91.431-138.843 250.232-230.484 430.787-230.463 168.273 0 317.626 79.554 411.233 202.873zM795.916 724.167h81.477c-91.43 138.692-250.254 230.463-430.787 230.463-168.161 0.022-317.625-79.683-411.121-202.764l126.149-26.661c77.588 86.148 190.641 140.402 316.658 140.402 126.522 0 240.037-54.729 317.624-141.439zM857.956 859.032l33.289-182.135-185.081 32.738 151.792 149.397zM35.235 39.653l-33.29 182.134 185.082-32.759-151.792-149.376zM285.942 455.669h-120.502c-35.839-31.096-74.841-56.806-82.422-108.81-10.987-75.271 13.14-76.137 133.84-76.137 2.901 0 5.824 0 8.834 0h0.065c2.923 0 5.757 0 8.57 0 120.171 0 143.639 0.843 134.038 76.137-6.66 52.2-46.585 77.714-82.423 108.81zM225.472 409.913c45.464 0 92.091 62.015 92.091 123.924 0 61.907-41.223 100.268-92.091 100.268s-92.090-38.361-92.090-100.268c0-61.887 44.013-123.924 92.090-123.924zM728.196 455.669h-120.502c-35.838-31.096-74.841-56.806-82.421-108.81-10.988-75.271 13.139-76.137 133.839-76.137 2.901 0 5.824 0 8.834 0h0.065c2.923 0 5.757 0 8.57 0 120.171 0 143.639 0.843 134.038 76.137-6.658 52.2-46.607 77.714-82.423 108.81zM667.709 409.913c45.462 0 92.089 62.015 92.089 123.924 0 61.907-41.223 100.268-92.089 100.268-50.869 0-92.091-38.361-92.091-100.268 0-61.887 44.013-123.924 92.091-123.924zM518.403 453.204h-143.397c-42.651-36.998-89.058-67.618-98.090-129.482-12.986-89.11 112.768-90.624 169.876-90.624 57.109 0 181.127 1.017 169.701 90.624-7.933 62.125-55.439 92.484-98.090 129.482zM446.421 398.755c54.099 0 109.603 73.823 109.603 147.493 0 73.672-49.066 119.318-109.603 119.318s-109.603-45.646-109.603-119.318c0-73.67 52.406-147.493 109.603-147.493z" />
<glyph unicode="&#xe95b;" glyph-name="renew" horiz-adv-x="862" d="M523.261 87.617l-144.913 125.936c-4.931 4.285-12.017 0.259-12.017-6.828v-79.155c-66.146 6.117-127.619 38.508-175.066 92.823-52.907 60.572-82.046 141.102-82.046 226.757s29.139 166.185 82.046 226.754c1.625 1.86 3.266 3.695 4.924 5.502 8.067 8.796 7.317 23.776-1.538 31.515l-39.054 34.124c-7.193 6.285-17.356 5.575-23.77-1.731-0.199-0.227-0.398-0.454-0.598-0.683-33.51-38.362-59.824-83.044-78.211-132.811-19.046-51.549-28.703-106.279-28.703-162.67 0-56.39 9.657-111.12 28.703-162.67 18.387-49.766 44.701-94.451 78.211-132.813s72.543-68.484 116.015-89.535c37.983-18.389 77.946-29.103 119.086-32.013v-75.259c0-7.093 7.086-11.118 12.017-6.828l144.913 125.93c3.948 3.433 3.948 10.229 0 13.657zM798.623 286.079c19.046 51.583 28.704 106.35 28.704 162.779 0 56.43-9.658 111.197-28.704 162.781-18.389 49.8-44.7 94.515-78.212 132.902-33.506 38.388-72.542 68.531-116.014 89.596-37.985 18.403-77.946 29.125-119.086 32.038v75.31c0 7.092-7.086 11.122-12.017 6.833l-144.912-126.018c-3.948-3.433-3.948-10.234 0-13.667l144.912-126.018c4.931-4.289 12.017-0.26 12.017 6.833v79.207c66.146-6.12 127.618-38.536 175.067-92.888 52.908-60.609 82.044-141.193 82.044-226.908s-29.135-166.298-82.044-226.908c-1.461-1.676-2.937-3.325-4.43-4.953-8.057-8.817-7.324-23.8 1.536-31.545l39.047-34.142c7.195-6.29 17.365-5.589 23.768 1.735 0.038 0.043 0.075 0.086 0.113 0.129 33.512 38.389 59.823 83.1 78.212 132.904z" />
<glyph unicode="&#xe95c;" glyph-name="return" horiz-adv-x="1054" d="M415.97 848.716c6.84-7.176 10.55-16.773 10.318-26.684-0.235-9.911-4.394-19.323-11.565-26.168l-206.719-197.346h498.749c71.078 0 139.243-28.235 189.503-78.496 50.26-50.257 78.496-118.426 78.496-189.503s-28.235-139.243-78.496-189.503c-50.26-50.257-118.426-78.493-189.503-78.493h-143.348c-9.918 0-19.429 3.939-26.44 10.951-7.014 7.014-10.954 16.526-10.954 26.443s3.939 19.429 10.954 26.443c7.011 7.011 16.523 10.951 26.44 10.951h143.348c51.242 0 100.385 20.357 136.62 56.591 36.232 36.232 56.588 85.374 56.588 136.617s-20.357 100.385-56.588 136.62c-36.235 36.235-85.378 56.588-136.62 56.588h-498.749l206.719-197.295c7.174-6.852 11.333-16.27 11.562-26.184 0.229-9.918-3.491-19.519-10.339-26.693-6.852-7.174-16.27-11.333-26.187-11.562-9.915-0.229-19.516 3.491-26.69 10.342l-274.23 261.765c-3.658 3.491-6.57 7.689-8.559 12.339-1.989 4.647-3.015 9.653-3.015 14.709s1.026 10.062 3.015 14.709c1.989 4.65 4.901 8.849 8.559 12.339l274.23 261.765c7.177 6.84 16.773 10.551 26.684 10.317s19.323-4.393 26.166-11.564h0.051z" />
<glyph unicode="&#xe95d;" glyph-name="reward-redeem" horiz-adv-x="819" d="M455.524 860.321c10.426 0 18.872 8.313 18.872 18.561v58.175c0.006 10.248-8.446 18.562-18.872 18.562-10.424 0-18.87-8.313-18.87-18.562v-58.168c0-10.255 8.452-18.568 18.87-18.568zM288.206 298.441c-0.265-0.038-0.528-0.082-0.792-0.121 0.941 0.128 1.881 0.241 2.822 0.356-0.677-0.083-1.36-0.147-2.029-0.235zM576.496 246.488c0.167 1.657 0.173 3.359 0.006 5.098-0.071 0.758-0.192 1.501-0.334 2.239 0.142-0.731 0.257-1.475 0.334-2.239 0.167-1.733 0.154-3.441-0.006-5.098zM254.087 289.614c-0.052-0.019-0.104-0.044-0.154-0.065 0.722 0.285 1.449 0.551 2.176 0.818-0.682-0.254-1.358-0.493-2.021-0.753zM684.587 336.113l-76.379-72.576c0.48-1.802 0.873-3.63 1.18-5.489-0.307 1.865-0.699 3.686-1.18 5.489l76.379 72.576zM571.838 263.704c-0.249 0.343-0.515 0.674-0.781 0.999 0.388-0.474 0.748-0.969 1.104-1.468-0.113 0.156-0.21 0.318-0.323 0.469zM399.933 209.359c0.666 4.020 2.799 7.563 5.862 10.053-3.069-2.489-5.203-6.032-5.862-10.053zM188.974 239.655c-0.087-0.12-0.165-0.241-0.244-0.361v-0.008c0.079 0.12 0.158 0.249 0.244 0.369zM594.952 209.907c-0.17-0.186-0.339-0.372-0.507-0.558h0.006c0.169 0.186 0.331 0.372 0.501 0.558zM568.838 230.649c4.243 4.128 7.048 9.668 7.658 15.839-0.603-6.177-3.415-11.711-7.658-15.839zM708.109 358.463c2.398 2.357 5.153 4.173 8.101 5.434-2.948-1.26-5.703-3.070-8.101-5.434zM768.848 381.84c-11.143 11.010-26.156 17.124-42.131 17.124-1.467 0-2.929-0.069-4.383-0.17v97.869h14.88c10.424 0 18.87 8.313 18.87 18.561v96.124c0 10.256-8.452 18.563-18.87 18.563h-27.182c11.943 31.311 3.575 68.145-23.19 90.356-17.18 14.257-37.965 22.627-60.11 24.196-43.181 3.069-93.847-25.564-124.11-51.016-2.224-1.872-4.447-3.812-6.658-5.785h-80.864c-2.212 1.972-4.435 3.913-6.658 5.785-30.265 25.452-80.929 54.085-124.11 51.016-22.145-1.569-42.932-9.939-60.112-24.196-26.764-22.211-35.139-59.052-23.188-90.356h-27.182c-10.426 0-18.871-8.313-18.871-18.563v-96.124c0-10.254 8.451-18.561 18.871-18.561h14.878v-208.338c-3.857-3.346-7.593-6.85-11.174-10.531-9.996-10.305-18.364-21.499-25.202-33.354-7.081 3.151-14.827 4.847-22.863 4.847-14.968 0-29.027-5.742-39.599-16.135l-74.656-73.435c-8.509-8.37-8.509-21.97 0-30.384l181.446-178.475c8.561-8.37 22.381-8.37 30.892 0l74.656 73.433c15.020 14.774 19.703 35.799 14.109 54.518l4.876 4.753c14.303 14.112 33.718 22.016 53.992 22.016h209.564c15.929 0 30.994 7.053 40.984 19.242l144.57 175.23c10.424 10.916 16.115 25.072 16.115 40.174 0.006 15.795-6.261 30.562-17.589 41.617zM684.587 381.897l-94.315-89.619c-10.905 9.643-25.438 15.568-41.078 15.568h-28.239v188.818h163.626v-114.767h0.006zM718.336 592.781v-58.993h-197.382v58.993h197.382zM624.008 707.434c14.136-1.002 27.445-6.379 38.485-15.543 17.896-14.85 20.382-42.027 5.555-60.575-0.397-0.492-0.8-0.945-1.204-1.405h-145.89v29.95c1.987 1.779 4.049 3.575 6.19 5.37 26.752 22.495 68.606 44.201 96.864 42.203zM427.845 650.539h55.362v-342.693h-55.362v342.693zM243.008 631.316c-14.834 18.549-12.342 45.726 5.555 60.575 11.042 9.164 24.349 14.541 38.485 15.543 1.224 0.088 2.467 0.126 3.735 0.126 28.111 0 67.538-20.811 93.13-42.329 2.139-1.802 4.203-3.592 6.19-5.37v-29.95h-145.89c-0.405 0.46-0.808 0.914-1.205 1.405zM192.72 592.781h197.377v-58.993h-197.377v58.993zM226.469 496.664h163.627v-185.213c-1.974 0.718-3.883 1.538-5.709 2.465-24.292 12.371-50.455 18.675-77.714 18.675-13.328 0-26.559-1.525-39.457-4.476-10.752-2.451-21.268-5.892-31.399-10.26-3.152-1.361-6.265-2.817-9.342-4.356v183.165h-0.006zM280.442 49.71c-0.583-0.737-1.199-1.456-1.884-2.136l-66.429-65.341-164.991 162.29 66.428 65.341c3.133 3.081 6.978 5.048 11.008 5.936 0.211 0.044 0.417 0.113 0.628 0.151 0.173 0.032 0.346 0.044 0.519 0.076 1.249 0.208 2.512 0.334 3.774 0.334 4.306 0 8.638-1.216 12.386-3.649 1.249-0.813 2.435-1.758 3.537-2.842l133.139-130.966c8.112-7.978 8.728-20.502 1.884-29.193zM745.267 321.914l-145.487-176.358c-3.683-4.469-9.233-7.053-15.064-7.053h-214.484c-25.97 0-50.839-10.16-69.197-28.225l-3.537-3.434-118.556 116.613c0.014 0.032 0.033 0.057 0.052 0.088 0.859 1.646 1.761 3.272 2.691 4.879 0.295 0.51 0.603 1.015 0.898 1.519 0.698 1.172 1.416 2.338 2.146 3.486 0.328 0.51 0.647 1.015 0.974 1.519 0.929 1.418 1.89 2.817 2.878 4.197 0.050 0.069 0.096 0.145 0.153 0.221 0.071 0.095 0.135 0.189 0.198 0.284 1.103 1.533 2.25 3.033 3.415 4.52 0.353 0.447 0.718 0.889 1.078 1.336 0.871 1.078 1.749 2.136 2.653 3.189 0.397 0.462 0.788 0.922 1.191 1.382 1.070 1.21 2.16 2.407 3.275 3.586 0.205 0.214 0.397 0.435 0.602 0.649 1.314 1.374 2.666 2.716 4.036 4.041 0.384 0.372 0.783 0.731 1.174 1.103 1.038 0.977 2.089 1.941 3.152 2.886 0.447 0.397 0.896 0.794 1.352 1.185 1.205 1.040 2.421 2.062 3.658 3.064 0.269 0.214 0.526 0.441 0.796 0.655 1.512 1.204 3.044 2.382 4.606 3.529 0.378 0.277 0.769 0.548 1.147 0.826 1.218 0.876 2.448 1.741 3.691 2.585 0.474 0.321 0.948 0.636 1.429 0.952 1.339 0.882 2.684 1.739 4.057 2.584 0.301 0.183 0.595 0.378 0.903 0.561 1.686 1.021 3.397 2.004 5.12 2.963 0.328 0.183 0.66 0.353 0.994 0.529 1.415 0.769 2.845 1.512 4.28 2.237 0.474 0.239 0.948 0.473 1.423 0.706 1.473 0.718 2.954 1.412 4.446 2.080 0.315 0.139 0.622 0.29 0.942 0.429 1.846 0.813 3.71 1.588 5.588 2.327 0.052 0.019 0.102 0.044 0.154 0.063 0.666 0.258 1.339 0.498 2.005 0.75 0.884 0.334 1.768 0.662 2.666 0.977 1.23 0.435 2.473 0.863 3.716 1.267 0.589 0.189 1.185 0.365 1.782 0.548 0.903 0.277 1.813 0.561 2.722 0.826 0.629 0.183 1.262 0.347 1.897 0.523 0.884 0.239 1.769 0.485 2.659 0.712 0.647 0.164 1.295 0.315 1.941 0.473 0.892 0.214 1.782 0.422 2.673 0.618 0.646 0.145 1.293 0.277 1.941 0.41 0.903 0.189 1.813 0.365 2.724 0.537 0.64 0.12 1.281 0.232 1.922 0.347 0.936 0.164 1.878 0.309 2.812 0.454 0.622 0.095 1.243 0.189 1.865 0.277 0.263 0.038 0.526 0.082 0.788 0.12 0.673 0.088 1.345 0.151 2.020 0.233 0.666 0.082 1.339 0.164 2.005 0.233 0.942 0.095 1.883 0.176 2.831 0.252 0.66 0.057 1.314 0.12 1.974 0.164 1.032 0.069 2.064 0.12 3.096 0.164 0.577 0.025 1.147 0.063 1.723 0.088 1.493 0.050 2.992 0.076 4.491 0.082 0.109 0 0.224 0.006 0.334 0.006 20.85 0 42.085-4.658 62.358-15.007 1.571-0.8 3.167-1.55 4.788-2.243 0.069-0.032 0.134-0.063 0.205-0.088 0.032-0.013 0.057-0.025 0.090-0.038 3.357-1.438 6.804-2.655 10.322-3.656 8.799-2.514 17.999-3.705 27.213-3.705h137.542c0.025 0 0.057-0.006 0.082-0.006 0.731 0 1.449-0.038 2.166-0.095 0.205-0.019 0.411-0.032 0.616-0.057 0.723-0.076 1.448-0.164 2.158-0.29 0.052-0.013 0.11-0.025 0.161-0.032 0.685-0.126 1.364-0.284 2.031-0.454 0.192-0.050 0.392-0.101 0.584-0.158 0.698-0.195 1.389-0.41 2.062-0.655 0.052-0.019 0.096-0.038 0.148-0.057 0.641-0.241 1.268-0.506 1.884-0.783 0.172-0.082 0.351-0.158 0.525-0.246 0.647-0.309 1.282-0.636 1.903-0.989 0.046-0.025 0.090-0.057 0.142-0.088 0.583-0.34 1.147-0.699 1.698-1.078 0.153-0.107 0.307-0.214 0.46-0.321 0.577-0.41 1.141-0.838 1.686-1.292 0.052-0.044 0.096-0.088 0.148-0.126 0.499-0.422 0.974-0.863 1.435-1.323 0.134-0.132 0.269-0.265 0.403-0.403 0.487-0.498 0.955-1.008 1.404-1.545 0.057-0.069 0.115-0.143 0.173-0.221 0.268-0.334 0.537-0.668 0.788-1.008 0.115-0.151 0.211-0.315 0.32-0.473 0.115-0.164 0.232-0.328 0.34-0.498 0.384-0.58 0.756-1.178 1.095-1.79 0.027-0.050 0.052-0.101 0.077-0.151 0.314-0.586 0.602-1.185 0.871-1.802 0.071-0.158 0.142-0.321 0.205-0.479 0.276-0.668 0.539-1.349 0.756-2.050v-0.006c0.219-0.693 0.391-1.412 0.545-2.13 0.032-0.164 0.071-0.328 0.102-0.492 0.142-0.737 0.263-1.475 0.334-2.237 0.173-1.739 0.159-3.442 0-5.1-0.603-6.171-3.415-11.71-7.658-15.839-4.748-4.619-11.283-7.475-18.504-7.475h-133.908c-4.038 0-7.748-1.412-10.643-3.762-3.064-2.489-5.197-6.032-5.857-10.053-0.14-0.863-0.236-1.747-0.236-2.648 0-0.618 0.038-1.222 0.109-1.821 0.019-0.183 0.057-0.359 0.083-0.536 0.057-0.41 0.128-0.819 0.217-1.222 0.044-0.208 0.109-0.416 0.167-0.624 0.096-0.365 0.205-0.725 0.326-1.078 0.071-0.208 0.154-0.416 0.23-0.624 0.135-0.347 0.282-0.682 0.443-1.016 0.090-0.195 0.186-0.391 0.282-0.58 0.18-0.34 0.372-0.674 0.577-0.996 0.102-0.164 0.198-0.334 0.301-0.492 0.25-0.372 0.52-0.737 0.802-1.090 0.077-0.095 0.147-0.202 0.224-0.296 0.378-0.454 0.769-0.889 1.193-1.298 0.013-0.013 0.032-0.032 0.050-0.044 0.397-0.384 0.821-0.75 1.249-1.096 0.263-0.208 0.539-0.41 0.821-0.605 0.121-0.082 0.23-0.176 0.353-0.258 0.41-0.271 0.832-0.523 1.262-0.756 0.14-0.076 0.288-0.145 0.436-0.214 0.307-0.158 0.614-0.304 0.928-0.443 0.18-0.076 0.359-0.145 0.545-0.214 0.295-0.113 0.589-0.221 0.89-0.321 0.192-0.063 0.391-0.12 0.591-0.176 0.307-0.088 0.614-0.164 0.922-0.233 0.198-0.044 0.391-0.088 0.597-0.126 0.339-0.063 0.679-0.113 1.024-0.151 0.18-0.025 0.353-0.050 0.532-0.069 0.499-0.044 1.013-0.076 1.525-0.076 0.019 0 0.044 0 0.065 0h132.857c1.972 0 3.953 0.082 5.927 0.239 4.191 0.334 8.356 1.040 12.392 2.258 1.788 0.542 3.53 1.159 5.222 1.84 0.167 0.069 0.328 0.145 0.499 0.214 0.673 0.277 1.339 0.555 1.993 0.851 0.238 0.107 0.468 0.227 0.706 0.334 0.57 0.271 1.147 0.536 1.705 0.819 0.269 0.139 0.531 0.284 0.8 0.429 0.514 0.271 1.032 0.536 1.531 0.819 0.288 0.164 0.564 0.334 0.852 0.504 0.468 0.277 0.942 0.548 1.404 0.832 0.301 0.183 0.589 0.384 0.884 0.573 0.436 0.277 0.871 0.556 1.295 0.846 0.301 0.202 0.589 0.422 0.884 0.63 0.403 0.29 0.814 0.573 1.211 0.87 0.301 0.221 0.589 0.454 0.877 0.687 0.378 0.296 0.762 0.586 1.134 0.889 0.295 0.239 0.583 0.492 0.871 0.744 0.353 0.302 0.712 0.599 1.057 0.907 0.295 0.258 0.577 0.529 0.859 0.794 0.328 0.309 0.66 0.611 0.988 0.92 0.282 0.277 0.558 0.561 0.832 0.838 0.315 0.317 0.629 0.632 0.929 0.947 0.102 0.113 0.205 0.227 0.307 0.34 0.167 0.183 0.334 0.365 0.501 0.548 0.288 0.321 0.583 0.636 0.865 0.964 0.269 0.309 0.525 0.624 0.781 0.933 0.269 0.328 0.545 0.649 0.808 0.977 0.255 0.321 0.499 0.649 0.748 0.97 0.25 0.334 0.507 0.662 0.75 0.996s0.474 0.674 0.712 1.015c0.236 0.334 0.468 0.67 0.698 1.016 0.232 0.347 0.449 0.699 0.673 1.052 0.219 0.34 0.436 0.681 0.647 1.027 0.217 0.359 0.43 0.725 0.635 1.090 0.198 0.347 0.397 0.687 0.589 1.033 0.205 0.372 0.397 0.744 0.595 1.122 0.18 0.347 0.365 0.699 0.545 1.052 0.192 0.384 0.372 0.769 0.551 1.153 0.165 0.354 0.332 0.707 0.493 1.060 0.173 0.391 0.339 0.788 0.506 1.185 0.148 0.353 0.301 0.712 0.443 1.071 0.159 0.403 0.307 0.807 0.462 1.21 0.134 0.359 0.269 0.718 0.391 1.078 0.14 0.41 0.276 0.819 0.41 1.235 0.115 0.359 0.238 0.725 0.347 1.090 0.128 0.417 0.243 0.833 0.358 1.256 0.104 0.365 0.206 0.731 0.302 1.096 0.109 0.422 0.211 0.844 0.307 1.267 0.090 0.372 0.173 0.737 0.257 1.109 0.090 0.422 0.172 0.851 0.255 1.279 0.071 0.372 0.142 0.75 0.205 1.122 0.071 0.429 0.135 0.857 0.2 1.287 0.057 0.378 0.109 0.756 0.159 1.134 0.058 0.429 0.102 0.863 0.148 1.292 0.038 0.384 0.077 0.762 0.109 1.147 0.038 0.429 0.065 0.863 0.090 1.298 0.025 0.384 0.044 0.775 0.065 1.159 0.019 0.429 0.025 0.863 0.038 1.292 0.006 0.391 0.013 0.781 0.013 1.174 0 0.429-0.006 0.863-0.019 1.292-0.006 0.391-0.019 0.788-0.039 1.185-0.019 0.429-0.044 0.857-0.069 1.286-0.039 0.592-0.077 1.178-0.135 1.771-0.109 1.134-0.262 2.251-0.447 3.354-0.309 1.865-0.699 3.686-1.18 5.489l99.903 94.926c2.396 2.357 5.152 4.173 8.099 5.434 0.019 0.006 0.032 0.013 0.050 0.019 0.474 0.202 0.955 0.391 1.443 0.567 0.499 0.176 1.005 0.34 1.511 0.492 2.442 0.712 4.973 1.071 7.504 1.071 0.213 0 0.424-0.025 0.635-0.032 1.46-0.038 2.922-0.17 4.37-0.447 0.128-0.025 0.25-0.063 0.372-0.088 3.589-0.744 7.048-2.243 10.13-4.476 1.059-0.769 2.089-1.588 3.044-2.533 5.166-5.030 7.702-11.666 7.702-18.252-0.013-6.656-2.549-13.287-7.715-18.322zM145.399 144.019c7.47 7.348 7.47 19.259 0 26.607s-19.58 7.348-27.049 0c-7.47-7.348-7.47-19.259 0-26.607 7.469-7.346 19.58-7.346 27.049 0zM805.185 813.157c-7.368 7.248-19.319 7.248-26.695 0l-41.815-41.132c-7.37-7.248-7.37-19.002 0-26.257 7.368-7.248 19.319-7.248 26.693 0l41.817 41.132c7.37 7.255 7.37 19.009 0 26.257zM147.687 745.768c7.369-7.248 19.319-7.248 26.695 0 7.368 7.248 7.368 19.002 0 26.257l-41.817 41.132c-7.369 7.248-19.319 7.248-26.694 0-7.369-7.248-7.369-19.003 0-26.257l41.817-41.132zM280.699 841.506c3.94-9.492 14.955-14.049 24.606-10.173 9.649 3.876 14.282 14.711 10.341 24.203l-22.344 53.857c-3.94 9.492-14.955 14.049-24.604 10.173-9.651-3.876-14.284-14.711-10.342-24.203l22.344-53.857zM605.753 831.328c9.651-3.876 20.664 0.681 24.606 10.173l22.344 53.857c3.94 9.492-0.693 20.327-10.342 24.203s-20.664-0.681-24.606-10.173l-22.344-53.857c-3.94-9.492 0.693-20.326 10.342-24.203z" />
<glyph unicode="&#xe95e;" glyph-name="sign-up" horiz-adv-x="1045" d="M620.535 16.996h-490.212c-16.996 0-27.246 9.493-31.844 15.145-7.941 9.751-11.006 22.47-8.438 34.869 41.297 198.426 216.318 343.354 418.426 348.25 3.503-0.139 7.025-0.198 10.547-0.198 3.563 0 7.125 0.079 10.647 0.198 61.937-1.453 121.504-15.584 177.21-42.074 19.863-9.434 43.607-0.994 53.041 18.867 9.434 19.863 0.994 43.607-18.867 53.041-19.584 9.314-39.567 17.333-59.887 24.041 65.877 49.397 108.548 128.092 108.548 216.576 0 149.248-121.425 270.672-270.671 270.672-149.248 0-270.671-121.424-270.671-270.672 0-88.563 42.769-167.337 108.725-216.755-60.444-19.902-117.146-50.85-166.781-91.689-91.013-74.874-154.302-179.3-178.185-294.037-7.483-35.964 1.473-72.881 24.599-101.323 23.007-28.301 57.119-44.521 93.6-44.521h490.212c21.993 0 39.806 17.813 39.806 39.804 0 21.993-17.813 39.806-39.806 39.806zM327.972 685.711c0 105.344 85.719 191.063 191.063 191.063 105.342 0 191.061-85.719 191.061-191.063 0-102.097-80.506-185.747-181.35-190.822-3.223 0.060-6.468 0.081-9.711 0.081-3.204 0-6.43-0.041-9.634-0.1-100.905 5.054-181.429 88.723-181.429 190.842zM1028.533 126.458c0-21.993-17.813-39.804-39.806-39.804h-109.461v-109.463c0-21.99-17.813-39.804-39.804-39.804-21.993 0-39.806 17.813-39.806 39.804v109.463h-109.461c-21.993 0-39.806 17.811-39.806 39.804s17.813 39.806 39.806 39.806h109.461v109.461c0 21.993 17.813 39.806 39.806 39.806 21.99 0 39.804-17.813 39.804-39.806v-109.461h109.461c21.993 0 39.806-17.813 39.806-39.806z" />
</font>
</defs>
</svg>
